HQCLUB - Форум любителей кино

Загрузить изображение

Вернуться   HQCLUB - Форум любителей кино > Релизы AVC (h264) > Сборники, дилогии, трилогии... [AVC]

Сборники, дилогии, трилогии... [AVC] Отечественные и зарубежные сборники фильмов.

Ответ
 
Опции темы Опции просмотра
Старый 07.06.2016, 20:19   #1
Sub-эксперт
 
Аватар для Elheym
 
Регистрация: 10.01.2014
Пол: Мужчина
Сообщений: 1,525
Сказал(а) спасибо: 11,694
Поблагодарили 12,058 раз(а) в 1,782 сообщениях
По умолчанию Король Лев: Трилогия / The Lion King: Trilogy (1994-2004) BDRip 720p

Король Лев: Трилогия / The Lion King: Trilogy (1994-2004) BDRip 720p
от
HQCLUB



Король Лев / The Lion King (1994)

Король Лев / The Lion King (1994) BDRip 720p
от
HQCLUB



Информация о мультфильме:
Название: Король Лев
Оригинальное название: The Lion King
Год выхода: 1994
Жанр: мультфильм, мюзикл, драма, приключения, семейный
Режиссер: Роджер Аллерс, Роб Минкофф / Roger Allers, Rob Minkoff
Роли озвучивали: Джонатан Тейлор Томас, Мэттью Бродерик, Джеймс Эрл Джонс, Джереми Айронс, Мойра Келли, Никета Калам, Эрни Сабелла, Натан Лейн, Роберт Гийом, Роуэн Эткинсон...

О мультфильме: У величественного Короля-Льва Муфасы рождается наследник по имени Симба. Уже в детстве любознательный малыш становится жертвой интриг своего завистливого дяди Шрама, мечтающего о власти.

Симба познаёт горе утраты, предательство и изгнание, но в конце концов обретает верных друзей и находит любимую. Закалённый испытаниями, он в нелёгкой борьбе отвоёвывает своё законное место в «Круге жизни», осознав, что значит быть настоящим Королём.

«The Circle of Life»




Релиз от -
Автор рипа: Elheym

Выпущено: США ‖ Walt Disney Feature Animation, Walt Disney Pictures
Продолжительность: 01:28:23
Перевод 01: Профессиональный (полное дублирование) BD EUR
Перевод 02: Профессиональный (двухголосый, закадровый) Петр Гланц и Татьяна Казакова
Перевод 03: Авторский (одноголосый, закадровый) Андрей Гаврилов / поздний (~2008-09)
Перевод 04: Авторский (одноголосый, закадровый) Андрей Гаврилов / ранний (~1994-96)
Перевод 05: Авторский (одноголосый, закадровый) Юрий Живов
Перевод 06: Авторский (одноголосый, закадровый) Владимир Яковлев
Перевод 07: Авторский (одноголосый, закадровый) Максим Латышев (Егор Хрусталёв)
Перевод 08: Авторский (одноголосый, закадровый) Сергей Визгунов [VHS]
Перевод 09: Авторский (одноголосый, закадровый) Сергей Кузнецов [VHS]
Перевод 10: Авторский (одноголосый, закадровый) Александр Кашкин (Первомайский) [VHS]
Перевод 11: Одноголосый (закадровый) неизвестный переводчик [VHS]
Оригинальная аудиодорожка: английская
Субтитры: русские (полные), украинские (полные), английские (полные)
Главы: присутствуют, сохранены оригинальные

Файл:
Формат: MKV
Качество: BDRip 720p (источник: xfiles / Blu-ray Remux [The.Lion.King.1994.1080p.BDRemux.rutracker] / 1080p)
Видео: 1280x720 (16:9), 23.976 fps, MPEG-4 AVC, ~4112 kbps avg, 0.186 bit/pixel
Аудио #01: 48 kHz, AC3 Dolby Digital, 3/2 (L,C,R,l,r) + LFE ch, ~640 kbps avg | Профессиональный (полное дублирование) BD EUR |
Аудио #02: 48 kHz, AC3 Dolby Digital, 3/2 (L,C,R,l,r) + LFE ch, ~640 kbps avg | Профессиональный (двухголосый, закадровый) Петр Гланц и Татьяна Казакова |
Аудио #03: 48 kHz, AC3 Dolby Digital, 3/2 (L,C,R,l,r) + LFE ch, ~640 kbps avg | Авторский (одноголосый, закадровый) Андрей Гаврилов / поздний (~2008-09) |
Аудио #04: 48 kHz, AC3 Dolby Digital, 3/2 (L,C,R,l,r) + LFE ch, ~640 kbps avg | Авторский (одноголосый, закадровый) Андрей Гаврилов / ранний (~1994-96) |
Аудио #05: 48 kHz, AC3 Dolby Digital, 3/2 (L,C,R,l,r) + LFE ch, ~640 kbps avg | Авторский (одноголосый, закадровый) Юрий Живов |
Аудио #06: 48 kHz, AC3 Dolby Digital, 3/2 (L,C,R,l,r) + LFE ch, ~640 kbps avg | Авторский (одноголосый, закадровый) Владимир Яковлев |
Аудио #07: 48 kHz, AC3 Dolby Digital, 3/2 (L,C,R,l,r) + LFE ch, ~448 kbps avg | Авторский (одноголосый, закадровый) Максим Латышев (Егор Хрусталёв) |
Аудио #08: 48 kHz, AC3 Dolby Digital, 1/0 (C) ch, ~192 kbps avg | Авторский (одноголосый, закадровый) Сергей Визгунов [VHS] |
Аудио #09: 48 kHz, AC3 Dolby Digital, 1/0 (C) ch, ~192 kbps avg | Авторский (одноголосый, закадровый) Сергей Кузнецов [VHS] |
Аудио #10: 48 kHz, AC3 Dolby Digital, 1/0 (C) ch, ~192 kbps avg | Авторский (одноголосый, закадровый) Александр Кашкин (Первомайский) [VHS] |
Аудио #11: 48 kHz, AC3 Dolby Digital, 1/0 (C) ch, ~192 kbps avg | Одноголосый (закадровый) неизвестный переводчик [VHS] |
Аудио #12: 48 kHz, AC3 Dolby Digital, 3/2 (L,C,R,l,r) + LFE ch, ~640 kbps avg | Профессиональный (полное дублирование) украинский BD EUR |
Аудио #13: 48 kHz, AC3 Dolby Digital, 3/2 (L,C,R,l,r) + LFE ch, ~640 kbps avg | Оригинал |
Сэмпл: скачать
Размер: 6.58 ГБ

MediaInfo

Уникальный идентификатор : 206514359734947515872988907356221977518 (0x9B5D380C2FB6333DA6BC6520CEE1B3AE)
Полное имя : The.Lion.King.1994.720p.BluRay.11xRus.Ukr.Eng.-HQCLUB.mkv
Формат : Matroska
Версия формата : Version 2
Размер файла : 6,58 Гбайт
Продолжительность : 1 ч. 28 м.
Общий поток : 10,7 Мбит/сек
Название фильма : Король Лев / The Lion King (1994) BDRip 720p by Elheym [HQCLUB]
Дата кодирования : UTC 2016-06-07 08:15:43
Программа кодирования : mkvmerge v5.2.0 ('I can't explain') built on Dec 18 2011 18:12:03
Библиотека кодирования : libebml v1.2.3 + libmatroska v1.3.0
Обложка : Yes
Attachments : cover.jpg

Видео
Идентификатор : 1
Формат : AVC
Формат/Информация : Advanced Video Codec
Профиль формата : High@L4.1
Параметр CABAC формата : Да
Параметр ReFrames формата : 8 кадров
Идентификатор кодека : V_MPEG4/ISO/AVC
Продолжительность : 1 ч. 28 м.
Битрейт : 4112 Кбит/сек
Ширина : 1280 пикселей
Высота : 720 пикселей
Соотношение сторон : 16:9
Режим частоты кадров : Постоянный
Частота кадров : 23,976 (24000/1001) кадра/сек
Цветовое пространство : YUV
Субдискретизация насыщенности : 4:2:0
Битовая глубина : 8 бит
Тип развёртки : Прогрессивная
Бит/(Пиксели*Кадры) : 0.186
Размер потока : 2,54 Гбайт (39%)
Заголовок : Король Лев / The Lion King (1994) BDRip 720p by Elheym [HQCLUB]
Библиотека кодирования : x264 core 148 r2692+54 69a6f49 t_mod_Custom [8-bit@all X86_64]
Настройки программы : cabac=1 / ref=8 / deblock=1:-1:-1 / analyse=0x3:0x113 / me=umh / subme=11 / psy=1 / fade_compensate=0.00 / psy_rd=0.60:0.00 / mixed_ref=1 / me_range=32 / chroma_me=1 / trellis=2 / 8x8dct=1 / cqm=0 / deadzone=21,11 / fast_pskip=0 / chroma_qp_offset=-2 / threads=6 / lookahead_threads=2 / sliced_threads=0 / nr=0 / decimate=0 / interlaced=0 / bluray_compat=0 / constrained_intra=0 / fgo=0 / bframes=11 / b_pyramid=2 / b_adapt=2 / b_bias=0 / direct=3 / weightb=1 / open_gop=0 / weightp=2 / keyint=230 / keyint_min=23 / scenecut=40 / intra_refresh=0 / rc_lookahead=80 / rc=crf / mbtree=0 / crf=15.8000 / qcomp=0.70 / qpmin=0:0:0 / qpmax=69:69:69 / qpstep=4 / vbv_maxrate=50000 / vbv_bufsize=62500 / crf_max=0.0 / nal_hrd=none / filler=0 / ip_ratio=1.40 / pb_ratio=1.30 / aq=3:0.50 / aq-sensitivity=10.00 / aq-factor=1.00:1.00:1.00 / aq2=0 / aq3=1:[0.50:0.50]:[0.50:0.50]:[0.50:0.50]:[0.50:0.50] / aq3-sensitivity=10.00 / aq3-factor=[1.00:1.00]:[1.00:1.00]:[1.00:1.00] / aq3-boundary=205:56:9 / zones=977,1250,b=1.6002/28133,28246,b=1.4092/39034,39295,b=1.6093/42385,42477,b=1.5093/71757,71839,b=1.4500/73235,73381,b=1.5000/95681,95885,b=1.5000/107960,108067,b=1.6500/114304,114444,b=1.5500/118119,118236,b=1.4500/120070,126960,b=0.3400
Язык : English
Default : Да
Forced : Нет

Аудио #1
Идентификатор : 2
Формат : AC-3
Формат/Информация : Audio Coding 3
Расширение режима : CM (complete main)
Параметр Endianness формата : Big
Идентификатор кодека : A_AC3
Продолжительность : 1 ч. 28 м.
Вид битрейта : Постоянный
Битрейт : 640 Кбит/сек
Каналы : 6 каналов
Расположение каналов : Front: L C R, Side: L R, LFE
Частота : 48,0 КГц
Частота кадров : 31,250 кадров/сек (1536 spf)
Метод сжатия : С потерями
Размер потока : 405 Мбайт (6%)
Заголовок : АС3 5.1 @ 640 kbps - Dub, BD EUR
Язык : Russian
Default : Нет
Forced : Нет

Аудио #2
Идентификатор : 3
Формат : AC-3
Формат/Информация : Audio Coding 3
Расширение режима : CM (complete main)
Параметр Endianness формата : Big
Идентификатор кодека : A_AC3
Продолжительность : 1 ч. 28 м.
Вид битрейта : Постоянный
Битрейт : 640 Кбит/сек
Каналы : 6 каналов
Расположение каналов : Front: L C R, Side: L R, LFE
Частота : 48,0 КГц
Частота кадров : 31,250 кадров/сек (1536 spf)
Метод сжатия : С потерями
Размер потока : 405 Мбайт (6%)
Заголовок : АС3 5.1 @ 640 kbps - DVO, Glanc & Kazakova
Язык : Russian
Default : Нет
Forced : Нет

Аудио #3
Идентификатор : 4
Формат : AC-3
Формат/Информация : Audio Coding 3
Расширение режима : CM (complete main)
Параметр Endianness формата : Big
Идентификатор кодека : A_AC3
Продолжительность : 1 ч. 28 м.
Вид битрейта : Постоянный
Битрейт : 640 Кбит/сек
Каналы : 6 каналов
Расположение каналов : Front: L C R, Side: L R, LFE
Частота : 48,0 КГц
Частота кадров : 31,250 кадров/сек (1536 spf)
Метод сжатия : С потерями
Размер потока : 405 Мбайт (6%)
Заголовок : АС3 5.1 @ 640 kbps - AVO, Gavrilov (~2008-09)
Язык : Russian
Default : Нет
Forced : Нет

Аудио #4
Идентификатор : 5
Формат : AC-3
Формат/Информация : Audio Coding 3
Расширение режима : CM (complete main)
Параметр Endianness формата : Big
Идентификатор кодека : A_AC3
Продолжительность : 1 ч. 28 м.
Вид битрейта : Постоянный
Битрейт : 640 Кбит/сек
Каналы : 6 каналов
Расположение каналов : Front: L C R, Side: L R, LFE
Частота : 48,0 КГц
Частота кадров : 31,250 кадров/сек (1536 spf)
Метод сжатия : С потерями
Размер потока : 405 Мбайт (6%)
Заголовок : АС3 5.1 @ 640 kbps - AVO, Gavrilov (~1994-96)
Язык : Russian
Default : Нет
Forced : Нет

Аудио #5
Идентификатор : 6
Формат : AC-3
Формат/Информация : Audio Coding 3
Расширение режима : CM (complete main)
Параметр Endianness формата : Big
Идентификатор кодека : A_AC3
Продолжительность : 1 ч. 28 м.
Вид битрейта : Постоянный
Битрейт : 640 Кбит/сек
Каналы : 6 каналов
Расположение каналов : Front: L C R, Side: L R, LFE
Частота : 48,0 КГц
Частота кадров : 31,250 кадров/сек (1536 spf)
Метод сжатия : С потерями
Размер потока : 405 Мбайт (6%)
Заголовок : АС3 5.1 @ 640 kbps - AVO, Jhivov
Язык : Russian
Default : Нет
Forced : Нет

Аудио #6
Идентификатор : 7
Формат : AC-3
Формат/Информация : Audio Coding 3
Расширение режима : CM (complete main)
Параметр Endianness формата : Big
Идентификатор кодека : A_AC3
Продолжительность : 1 ч. 28 м.
Вид битрейта : Постоянный
Битрейт : 640 Кбит/сек
Каналы : 6 каналов
Расположение каналов : Front: L C R, Side: L R, LFE
Частота : 48,0 КГц
Частота кадров : 31,250 кадров/сек (1536 spf)
Метод сжатия : С потерями
Размер потока : 405 Мбайт (6%)
Заголовок : АС3 5.1 @ 640 kbps - AVO, Jakovlev
Язык : Russian
Default : Нет
Forced : Нет

Аудио #7
Идентификатор : 8
Формат : AC-3
Формат/Информация : Audio Coding 3
Расширение режима : CM (complete main)
Параметр Endianness формата : Big
Идентификатор кодека : A_AC3
Продолжительность : 1 ч. 28 м.
Вид битрейта : Постоянный
Битрейт : 448 Кбит/сек
Каналы : 6 каналов
Расположение каналов : Front: L C R, Side: L R, LFE
Частота : 48,0 КГц
Частота кадров : 31,250 кадров/сек (1536 spf)
Метод сжатия : С потерями
Размер потока : 283 Мбайт (4%)
Заголовок : АС3 5.1 @ 448 kbps - AVO, Latyshev
Язык : Russian
Default : Нет
Forced : Нет

Аудио #8
Идентификатор : 9
Формат : AC-3
Формат/Информация : Audio Coding 3
Расширение режима : CM (complete main)
Параметр Endianness формата : Big
Идентификатор кодека : A_AC3
Продолжительность : 1 ч. 28 м.
Вид битрейта : Постоянный
Битрейт : 192 Кбит/сек
Каналы : 1 канал
Расположение каналов : Front: C
Частота : 48,0 КГц
Частота кадров : 31,250 кадров/сек (1536 spf)
Метод сжатия : С потерями
Размер потока : 121 Мбайт (2%)
Заголовок : АС3 1.0 @ 192 kbps - AVO, Vizgunov [VHS]
Язык : Russian
Default : Нет
Forced : Нет

Аудио #9
Идентификатор : 10
Формат : AC-3
Формат/Информация : Audio Coding 3
Расширение режима : CM (complete main)
Параметр Endianness формата : Big
Идентификатор кодека : A_AC3
Продолжительность : 1 ч. 28 м.
Вид битрейта : Постоянный
Битрейт : 192 Кбит/сек
Каналы : 1 канал
Расположение каналов : Front: C
Частота : 48,0 КГц
Частота кадров : 31,250 кадров/сек (1536 spf)
Метод сжатия : С потерями
Размер потока : 121 Мбайт (2%)
Заголовок : АС3 1.0 @ 192 kbps - AVO, Kuznecov [VHS]
Язык : Russian
Default : Нет
Forced : Нет

Аудио #10
Идентификатор : 11
Формат : AC-3
Формат/Информация : Audio Coding 3
Расширение режима : CM (complete main)
Параметр Endianness формата : Big
Идентификатор кодека : A_AC3
Продолжительность : 1 ч. 28 м.
Вид битрейта : Постоянный
Битрейт : 192 Кбит/сек
Каналы : 1 канал
Расположение каналов : Front: C
Частота : 48,0 КГц
Частота кадров : 31,250 кадров/сек (1536 spf)
Метод сжатия : С потерями
Размер потока : 121 Мбайт (2%)
Заголовок : АС3 1.0 @ 192 kbps - AVO, Kashkin [VHS]
Язык : Russian
Default : Нет
Forced : Нет

Аудио #11
Идентификатор : 12
Формат : AC-3
Формат/Информация : Audio Coding 3
Расширение режима : CM (complete main)
Параметр Endianness формата : Big
Идентификатор кодека : A_AC3
Продолжительность : 1 ч. 28 м.
Вид битрейта : Постоянный
Битрейт : 192 Кбит/сек
Каналы : 1 канал
Расположение каналов : Front: C
Частота : 48,0 КГц
Частота кадров : 31,250 кадров/сек (1536 spf)
Метод сжатия : С потерями
Размер потока : 121 Мбайт (2%)
Заголовок : АС3 1.0 @ 192 kbps - VO, Unknown [VHS]
Язык : Russian
Default : Нет
Forced : Нет

Аудио #12
Идентификатор : 13
Формат : AC-3
Формат/Информация : Audio Coding 3
Расширение режима : CM (complete main)
Параметр Endianness формата : Big
Идентификатор кодека : A_AC3
Продолжительность : 1 ч. 28 м.
Вид битрейта : Постоянный
Битрейт : 640 Кбит/сек
Каналы : 6 каналов
Расположение каналов : Front: L C R, Side: L R, LFE
Частота : 48,0 КГц
Частота кадров : 31,250 кадров/сек (1536 spf)
Метод сжатия : С потерями
Размер потока : 405 Мбайт (6%)
Заголовок : АС3 5.1 @ 640 kbps - Dub, BD EUR
Язык : Ukrainian
Default : Нет
Forced : Нет

Аудио #13
Идентификатор : 14
Формат : AC-3
Формат/Информация : Audio Coding 3
Расширение режима : CM (complete main)
Параметр Endianness формата : Big
Идентификатор кодека : A_AC3
Продолжительность : 1 ч. 28 м.
Вид битрейта : Постоянный
Битрейт : 640 Кбит/сек
Каналы : 6 каналов
Расположение каналов : Front: L C R, Side: L R, LFE
Частота : 48,0 КГц
Частота кадров : 31,250 кадров/сек (1536 spf)
Метод сжатия : С потерями
Размер потока : 405 Мбайт (6%)
Заголовок : АС3 5.1 @ 640 kbps - Original
Язык : English
Default : Нет
Forced : Нет

Текст #1
Идентификатор : 15
Формат : UTF-8
Идентификатор кодека : S_TEXT/UTF8
Идентификатор кодека/Информация : UTF-8 Plain Text
Заголовок : Full
Язык : Russian
Default : Нет
Forced : Нет

Текст #2
Идентификатор : 16
Формат : UTF-8
Идентификатор кодека : S_TEXT/UTF8
Идентификатор кодека/Информация : UTF-8 Plain Text
Заголовок : Full
Язык : Ukrainian
Default : Нет
Forced : Нет

Текст #3
Идентификатор : 17
Формат : UTF-8
Идентификатор кодека : S_TEXT/UTF8
Идентификатор кодека/Информация : UTF-8 Plain Text
Заголовок : Full
Язык : English
Default : Нет
Forced : Нет

Меню
00:00:00.000 : :Chapter 01
00:04:40.071 : :Chapter 02
00:08:10.405 : :Chapter 03
00:11:28.979 : :Chapter 04
00:14:09.557 : :Chapter 05
00:17:51.028 : :Chapter 06
00:22:54.748 : :Chapter 07
00:25:36.116 : :Chapter 08
00:30:24.196 : :Chapter 09
00:35:52.150 : :Chapter 10
00:40:14.077 : :Chapter 11
00:41:14.429 : :Chapter 12
00:44:16.945 : :Chapter 13
00:48:20.563 : :Chapter 14
00:50:07.210 : :Chapter 15
00:53:14.773 : :Chapter 16
00:57:50.842 : :Chapter 17
01:00:56.568 : :Chapter 18
01:02:32.331 : :Chapter 19
01:08:49.625 : :Chapter 20
01:12:41.023 : :Chapter 21
01:16:42.305 : :Chapter 22
01:20:45.131 : :Chapter 23
01:23:23.872 : :Chapter 24
01:28:23.296 : :Chapter 25

x264 log

x264 [info]: frame I:999 Avg QP:12.52 size:167358
x264 [info]: frame P:31857 Avg QP:15.15 size: 47912
x264 [info]: frame B:94302 Avg QP:16.23 size: 12401

x264 [info]: consecutive B-frames: 3.2% 3.2% 13.9% 36.9% 18.1% 14.2% 3.4% 1.7% 1.2% 0.9% 1.0% 2.3%

x264 [info]: ref P L0: 51.9% 4.5% 19.8% 7.4% 5.9% 4.2% 3.8% 2.3% 0.2% 0.0%
x264 [info]: ref B L0: 72.7% 13.3% 6.3% 3.2% 2.3% 1.5% 0.7%
x264 [info]: ref B L1: 94.7% 5.3%




Цитата:
Примечания:
- на дорожке (Гаврилов поздний) вставка нескольких фраз из Гаврилова раннего (эпизод "Утренний доклад Зазу").
- на дорожке "В озвучке Гланца не хватает несколько фраз в начале, добавил Живова." © Devlad
- на дорожке (неизвестный переводчик) на отметке 01:01:45-01:02:19 вставка Гаврилова (был затёрт фрагмент кассеты).
Доп. информация: Благодарю всех-всех-всех, так или иначе участвовавших в создании этого релиза. Спасибо всем за помощь и содействие. Без вас, друзья, собрать всё это воедино не получилось-бы.
Персональные благодарности

- Спасибо multmir за всяческое содействие и за релиз Laser Disc > DVD5 (Custom), с переводами Андрея Гаврилова.
- Спасибо Alvestam за 5.1 дорожку с переводом Максима Латышева.
- Спасибо ALEKS KV и анвад за оцифровку дорожек с VHS с переводом Сергея Визгунова.
- Спасибо deform и KINOGON за оцифровку дорожек с VHS с переводом Сергея Кузнецова.
- Спасибо Myline за оцифровку дорожки с VHS с переводом Александра Кашкина.
- Спасибо angeleven77 и GVR232 за дорожку с VHS с переводом неизвестного товарища.
- Спасибо Devlad и 8bitman. Благодаря эти людям стало возможным присутствие в этом релизе дорожек 5, 6, 7, 8 с релиза HD-Club.

Король Лев 2: Гордость Симбы / The Lion King II: Simba's Pride (1998)

Король Лев 2: Гордость Симбы / The Lion King II: Simba's Pride (1998) BDRip 720p
от
HQCLUB



Информация о мультфильме:
Название: Король Лев 2: Гордость Симбы
Оригинальное название: The Lion King II: Simba's Pride
Год выхода: 1998
Жанр: мультфильм, мюзикл, мелодрама, приключения, семейный
Режиссер: Даррел Руни, Роб ЛаДука / Darrell Rooney, Rob LaDuka
Роли озвучивали: Мэттью Бродерик, Мойра Келли, Нив Кэмпбелл, Лиз Колэуэй, Мишель Хорн, Эшли Эднер, Charity Sanoy, Сюзанн Плешетт, Энди Дик, Райан О’Донохью...

О мультфильме: Много времени утекло с тех пор, как лев Симба сверг своего злого дядю Шрама и вернул трон короля саванны. У него и королевы Налы уже подрастает дочь — принцесса Киара.

Однако порученная легкомысленным заботам наших старых знакомых Тимона и Пумбы, проказливая и непослушная Киара пока никак не похожа на будущую королеву. Однажды сбежав в Запретную Землю, она встречает там львенка Кову, который становится ее лучшим другом.

Да только принцесса не знает, что эта дружба может стоить ей короны! Кову — наследник Шрама, и пусть он не пошел в старого интригана, его мать Зира спит и видит, как бы усадить сына на трон.

И чем прочнее дружба между Киарой и Кову, тем гуще тучи над племенем Симбы…

«The Circle of Life Continues...»




Релиз от -
Автор рипа: Elheym

Выпущено: США, Австралия ‖ DisneyToon Studios, Walt Disney Animation Australia, Walt Disney Pictures
Продолжительность: 01:20:49
Перевод 1: Профессиональный (полное дублирование) BD EUR
Перевод 2: Профессиональный (двухголосый, закадровый) Карусель
Перевод 3: Студийный (одноголосый, закадровый) Петр Гланц
Перевод 4: Авторский (одноголосый, закадровый) Юрий Живов
Перевод 5: Авторский (одноголосый, закадровый) Николай Антонов [VHS]
Перевод 6: Авторский (одноголосый, закадровый) Сергей Визгунов [VHS]
Оригинальная аудиодорожка: английская
Субтитры: русские (полные), украинские (полные), английские (полные)
Главы: присутствуют, сохранены оригинальные

Файл:
Формат: MKV
Качество: BDRip 720p (источник: xfiles / Blu-ray Remux [The.Lion.King.2.Simba's.Pride.1998.1080p.BDRemux.r utracker] / 1080p)
Видео: 1280x720 (16:9), 23.976 fps, MPEG-4 AVC, ~4707 kbps avg, 0.213 bit/pixel
Аудио #1: 48 kHz, AC3 Dolby Digital, 3/2 (L,C,R,l,r) + LFE ch, ~640 kbps avg | Профессиональный (полное дублирование) BD EUR |
Аудио #2: 48 kHz, AC3 Dolby Digital, 3/2 (L,C,R,l,r) + LFE ch, ~640 kbps avg | Профессиональный (двухголосый, закадровый) Карусель |
Аудио #3: 48 kHz, AC3 Dolby Digital, 3/2 (L,C,R,l,r) + LFE ch, ~448 kbps avg | Студийный (одноголосый, закадровый) Петр Гланц |
Аудио #4: 48 kHz, AC3 Dolby Digital, 3/2 (L,C,R,l,r) + LFE ch, ~640 kbps avg | Авторский (одноголосый, закадровый) Юрий Живов |
Аудио #5: 48 kHz, AC3 Dolby Digital, 2/0 (L,R) ch, ~192 kbps avg | Авторский (одноголосый, закадровый) Николай Антонов [VHS] |
Аудио #6: 48 kHz, AC3 Dolby Digital, 2/0 (L,R) ch, ~192 kbps avg | Авторский (одноголосый, закадровый) Сергей Визгунов [VHS] |
Аудио #7: 48 kHz, AC3 Dolby Digital, 3/2 (L,C,R,l,r) + LFE ch, ~640 kbps avg | Оригинал |
Сэмпл: скачать
Размер: 4.67 ГБ

MediaInfo

Уникальный идентификатор : 189413197058187231617379395507014035213 (0x8E7FA7A1795AA760ACE42954D657670D)
Полное имя : The.Lion.King.II.Simba's.Pride.1998.720p.BluRay.6x Rus.Eng.-HQCLUB.mkv
Формат : Matroska
Версия формата : Version 2
Размер файла : 4,67 Гбайт
Продолжительность : 1 ч. 20 м.
Общий поток : 8263 Кбит/сек
Название фильма : Король Лев 2: Гордость Симбы / The Lion King II: Simba's Pride (1998) BDRip 720p by Elheym [HQCLUB]
Дата кодирования : UTC 2016-06-07 16:36:26
Программа кодирования : mkvmerge v5.2.0 ('I can't explain') built on Dec 18 2011 18:12:03
Библиотека кодирования : libebml v1.2.3 + libmatroska v1.3.0
Обложка : Yes
Attachments : cover.jpg

Видео
Идентификатор : 1
Формат : AVC
Формат/Информация : Advanced Video Codec
Профиль формата : High@L4.1
Параметр CABAC формата : Да
Параметр ReFrames формата : 8 кадров
Идентификатор кодека : V_MPEG4/ISO/AVC
Продолжительность : 1 ч. 20 м.
Битрейт : 4707 Кбит/сек
Ширина : 1280 пикселей
Высота : 720 пикселей
Соотношение сторон : 16:9
Режим частоты кадров : Постоянный
Частота кадров : 23,976 (24000/1001) кадра/сек
Цветовое пространство : YUV
Субдискретизация насыщенности : 4:2:0
Битовая глубина : 8 бит
Тип развёртки : Прогрессивная
Бит/(Пиксели*Кадры) : 0.213
Размер потока : 2,66 Гбайт (57%)
Заголовок : Король Лев 2: Гордость Симбы / The Lion King II: Simba's Pride (1998) BDRip 720p by Elheym [HQCLUB]
Библиотека кодирования : x264 core 148 r2692+54 69a6f49 t_mod_Custom [8-bit@all X86_64]
Настройки программы : cabac=1 / ref=8 / deblock=1:-1:-1 / analyse=0x3:0x113 / me=umh / subme=11 / psy=1 / fade_compensate=0.00 / psy_rd=0.60:0.00 / mixed_ref=1 / me_range=32 / chroma_me=1 / trellis=2 / 8x8dct=1 / cqm=0 / deadzone=21,11 / fast_pskip=0 / chroma_qp_offset=-2 / threads=6 / lookahead_threads=2 / sliced_threads=0 / nr=0 / decimate=0 / interlaced=0 / bluray_compat=0 / constrained_intra=0 / fgo=0 / bframes=10 / b_pyramid=2 / b_adapt=2 / b_bias=0 / direct=3 / weightb=1 / open_gop=0 / weightp=2 / keyint=230 / keyint_min=23 / scenecut=40 / intra_refresh=0 / rc_lookahead=80 / rc=crf / mbtree=0 / crf=15.8000 / qcomp=0.70 / qpmin=0:0:0 / qpmax=69:69:69 / qpstep=4 / vbv_maxrate=50000 / vbv_bufsize=62500 / crf_max=0.0 / nal_hrd=none / filler=0 / ip_ratio=1.40 / pb_ratio=1.30 / aq=3:0.50 / aq-sensitivity=10.00 / aq-factor=1.00:1.00:1.00 / aq2=0 / aq3=1:[0.50:0.50]:[0.50:0.50]:[0.50:0.50]:[0.50:0.50] / aq3-sensitivity=10.00 / aq3-factor=[1.00:1.00]:[1.00:1.00]:[1.00:1.00] / aq3-boundary=205:56:9 / zones=340,427,b=1.5000/428,539,b=1.5000/540,631,b=1.3500/718,819,b=1.4000/820,1025,b=1.5500/1134,1231,b=1.3000/1302,1519,b=1.3000/1520,1532,b=1.4000/1896,1957,b=1.3000/2090,2291,b=1.3000/2292,2384,b=1.3500/2616,2651,b=1.3000/2690,2733,b=1.5000/2802,2851,b=1.2000/2932,3183,b=1.6000/3396,3483,b=1.3000/3484,3535,b=1.3000/3536,3597,b=1.4000/3920,4032,b=1.3000/10143,10178,b=1.4000/10469,10524,b=1.4000/11253,11301,b=1.4000/13630,13675,b=1.4500/13856,14001,b=1.3500/14962,15159,b=1.4000/15793,15813,b=1.5000/36993,37416,b=1.3500/49489,49570,b=1.5000/54162,54349,b=1.4000/54350,54553,b=1.4000/65773,65817,b=1.5000/65818,65960,b=1.5000/69059,69102,b=1.7000/69373,69439,b=1.5000/70091,70132,b=1.6000/70133,70198,b=1.6000/71541,71728,b=1.5000/72205,72252,b=1.4500/74282,74411,b=1.4000/80429,80915,b=1.5000/83493,83570,b=1.6000/93485,93534,b=1.4500/93535,93663,b=1.5500/93664,93842,b=1.5500/96512,96567,b=1.6000/96940,96983,b=1.6000/97104,97121,b=1.5000/97540,97555,b=1.6500/98014,98104,b=1.6000/98544,98623,b=1.5000/98624,98695,b=1.5000/98696,98729,b=1.4000/98730,98795,b=1.4000/98796,98817,b=1.4000/98818,98837,b=1.4000/98838,98855,b=1.4000/98856,98975,b=1.4000/98976,99022,b=1.3000/99653,99694,b=1.5000/99695,99724,b=1.3000/100506,100549,b=1.4000/100550,100777,b=1.5000/100778,100821,b=1.5000/100822,100891,b=1.5000/100892,100984,b=1.4000/100985,101129,b=1.3500/102770,102795,b=1.5000/102818,102859,b=1.4000/105100,105167,b=1.4000/105168,105231,b=1.5000/105232,105313,b=1.4000/105314,105355,b=1.4000/105356,105395,b=1.5000/105870,105901,b=1.2500/106792,106953,b=1.4000/107232,107445,b=1.5000/107446,107493,b=1.4000/107494,107623,b=1.3000/107624,107665,b=1.3000/107808,107857,b=1.2000/107970,108057,b=1.4000/108058,108121,b=1.3000/108384,108472,b=0.2400/108527,109822,b=0.2800/109853,115655,b=0.3400
Язык : English
Default : Да
Forced : Нет

Аудио #1
Идентификатор : 2
Формат : AC-3
Формат/Информация : Audio Coding 3
Расширение режима : CM (complete main)
Параметр Endianness формата : Big
Идентификатор кодека : A_AC3
Продолжительность : 1 ч. 20 м.
Вид битрейта : Постоянный
Битрейт : 640 Кбит/сек
Каналы : 6 каналов
Расположение каналов : Front: L C R, Side: L R, LFE
Частота : 48,0 КГц
Частота кадров : 31,250 кадров/сек (1536 spf)
Метод сжатия : С потерями
Размер потока : 370 Мбайт (8%)
Заголовок : АС3 5.1 @ 640 kbps - Dub, BD EUR
Язык : Russian
Default : Нет
Forced : Нет

Аудио #2
Идентификатор : 3
Формат : AC-3
Формат/Информация : Audio Coding 3
Расширение режима : CM (complete main)
Параметр Endianness формата : Big
Идентификатор кодека : A_AC3
Продолжительность : 1 ч. 20 м.
Вид битрейта : Постоянный
Битрейт : 640 Кбит/сек
Каналы : 6 каналов
Расположение каналов : Front: L C R, Side: L R, LFE
Частота : 48,0 КГц
Частота кадров : 31,250 кадров/сек (1536 spf)
Метод сжатия : С потерями
Размер потока : 370 Мбайт (8%)
Заголовок : AC3 5.1 @ 640 kbps - DVO, Karusel
Язык : Russian
Default : Нет
Forced : Нет

Аудио #3
Идентификатор : 4
Формат : AC-3
Формат/Информация : Audio Coding 3
Расширение режима : CM (complete main)
Параметр Endianness формата : Big
Идентификатор кодека : A_AC3
Продолжительность : 1 ч. 20 м.
Вид битрейта : Постоянный
Битрейт : 448 Кбит/сек
Каналы : 6 каналов
Расположение каналов : Front: L C R, Side: L R, LFE
Частота : 48,0 КГц
Частота кадров : 31,250 кадров/сек (1536 spf)
Метод сжатия : С потерями
Размер потока : 259 Мбайт (5%)
Заголовок : АС3 5.1 @ 448 kbps - AVO, Glanc
Язык : Russian
Default : Нет
Forced : Нет

Аудио #4
Идентификатор : 5
Формат : AC-3
Формат/Информация : Audio Coding 3
Расширение режима : CM (complete main)
Параметр Endianness формата : Big
Идентификатор кодека : A_AC3
Продолжительность : 1 ч. 20 м.
Вид битрейта : Постоянный
Битрейт : 640 Кбит/сек
Каналы : 6 каналов
Расположение каналов : Front: L C R, Side: L R, LFE
Частота : 48,0 КГц
Частота кадров : 31,250 кадров/сек (1536 spf)
Метод сжатия : С потерями
Размер потока : 370 Мбайт (8%)
Заголовок : AC3 5.1 @ 640 kbps - AVO, Zhivov
Язык : Russian
Default : Нет
Forced : Нет

Аудио #5
Идентификатор : 6
Формат : AC-3
Формат/Информация : Audio Coding 3
Расширение режима : CM (complete main)
Параметр Endianness формата : Big
Идентификатор кодека : A_AC3
Продолжительность : 1 ч. 20 м.
Вид битрейта : Постоянный
Битрейт : 192 Кбит/сек
Каналы : 2 канала
Расположение каналов : Front: L R
Частота : 48,0 КГц
Частота кадров : 31,250 кадров/сек (1536 spf)
Метод сжатия : С потерями
Размер потока : 111 Мбайт (2%)
Заголовок : АС3 2.0 @ 192 kbps - AVO, Antonov [VHS]
Язык : Russian
Default : Нет
Forced : Нет

Аудио #6
Идентификатор : 7
Формат : AC-3
Формат/Информация : Audio Coding 3
Расширение режима : CM (complete main)
Параметр Endianness формата : Big
Идентификатор кодека : A_AC3
Продолжительность : 1 ч. 20 м.
Вид битрейта : Постоянный
Битрейт : 192 Кбит/сек
Каналы : 2 канала
Расположение каналов : Front: L R
Частота : 48,0 КГц
Частота кадров : 31,250 кадров/сек (1536 spf)
Метод сжатия : С потерями
Размер потока : 111 Мбайт (2%)
Заголовок : АС3 2.0 @ 192 kbps - AVO, Vizgunov [VHS]
Язык : Russian
Default : Нет
Forced : Нет

Аудио #7
Идентификатор : 8
Формат : AC-3
Формат/Информация : Audio Coding 3
Расширение режима : CM (complete main)
Параметр Endianness формата : Big
Идентификатор кодека : A_AC3
Продолжительность : 1 ч. 20 м.
Вид битрейта : Постоянный
Битрейт : 640 Кбит/сек
Каналы : 6 каналов
Расположение каналов : Front: L C R, Side: L R, LFE
Частота : 48,0 КГц
Частота кадров : 31,250 кадров/сек (1536 spf)
Метод сжатия : С потерями
Размер потока : 370 Мбайт (8%)
Заголовок : AC3 5.1 @ 640 kbps - Original
Язык : English
Default : Нет
Forced : Нет

Текст #1
Идентификатор : 9
Формат : UTF-8
Идентификатор кодека : S_TEXT/UTF8
Идентификатор кодека/Информация : UTF-8 Plain Text
Заголовок : Full
Язык : Russian
Default : Нет
Forced : Нет

Текст #2
Идентификатор : 10
Формат : UTF-8
Идентификатор кодека : S_TEXT/UTF8
Идентификатор кодека/Информация : UTF-8 Plain Text
Заголовок : Full
Язык : Ukrainian
Default : Нет
Forced : Нет

Текст #3
Идентификатор : 11
Формат : UTF-8
Идентификатор кодека : S_TEXT/UTF8
Идентификатор кодека/Информация : UTF-8 Plain Text
Заголовок : Full
Язык : English
Default : Нет
Forced : Нет

Меню
00:00:00.000 : :Chapter 01
00:03:33.129 : :Chapter 02
00:05:39.005 : :Chapter 03
00:09:16.054 : :Chapter 04
00:14:21.068 : :Chapter 05
00:19:09.690 : :Chapter 06
00:21:48.181 : :Chapter 07
00:26:53.902 : :Chapter 08
00:31:02.944 : :Chapter 09
00:33:00.478 : :Chapter 10
00:39:56.268 : :Chapter 11
00:44:47.101 : :Chapter 12
00:45:40.446 : :Chapter 13
00:50:37.951 : :Chapter 14
00:56:15.830 : :Chapter 15
00:59:51.546 : :Chapter 16
01:01:24.389 : :Chapter 17
01:05:01.439 : :Chapter 18
01:12:54.119 : :Chapter 19
01:15:20.515 : :Chapter 20
01:20:49.594 : :Chapter 21

x264 log

x264 [info]: frame I:1022 Avg QP:12.62 size:168262
x264 [info]: frame P:29727 Avg QP:15.32 size: 54582
x264 [info]: frame B:85531 Avg QP:16.47 size: 13517

x264 [info]: consecutive B-frames: 2.9% 4.0% 15.2% 37.3% 21.8% 11.4% 2.4% 1.8% 1.0% 0.8% 1.3%

x264 [info]: ref P L0: 48.2% 3.4% 22.8% 7.6% 6.8% 4.4% 4.2% 2.4% 0.1% 0.0%
x264 [info]: ref B L0: 70.5% 14.9% 6.8% 3.3% 2.3% 1.5% 0.7%
x264 [info]: ref B L1: 94.7% 5.3%




Цитата:
- Спасибо multmir за чистый голос Юрия Живова.
- Спасибо sergey_n за выделенные голоса "Карусель".
- Спасибо -Доцент- за 5.1 дорожку с переводом Петра Гланца.
- Спасибо sk1987 за VHS дорожку с переводом Сергея Визгунова.
- Спасибо Myline за оцифровку дорожки с VHS с переводом "Николая Антонова".

Король Лев 3: Хакуна матата / The Lion King 1 1/2 / The Lion King 3: Hakuna Matata (2004)

Король Лев 3: Хакуна матата / The Lion King 1 1/2 / The Lion King 3: Hakuna Matata (2004) BDRip 720p
от
HQCLUB



Информация о мультфильме:
Название: Король Лев 3: Хакуна матата
Оригинальное название: The Lion King 1 1/2 / The Lion King 3: Hakuna Matata
Год выхода: 2004
Жанр: мультфильм, комедия, приключения, семейный
Режиссер: Брэдли Рэймонд / Bradley Raymond
Роли озвучивали: Натан Лэйн, Эрни Сабелла, Джули Кавнер, Джерри Стиллер, Мэттью Бродерик, Роберт Гийом, Мойра Келли, Вупи Голдберг, Чич Марин, Джим Каммингс...

О мультфильме: Главными героями мультфильма станут всеобщие любимцы Тимон и Пумба! Вы узнаете об этих закадычных друзьях много нового, например, о том, как они впервые встретились, что за потрясающие приключения вместе прожили и на какие удивительные подвиги их сподвигло знаменитое знакомство с будущем королем саванны Симбой.

А также познакомитесь с новыми забавными героями, которые точно не дадут вам скучать — заботливой мамочкой Тимона и его ужасно саркастичным дядей Максом! Скучно не будет!

«You don't know the ½ of it!»




Релиз от -
Автор рипа: Elheym

Выпущено: Австралия, США ‖ DisneyToon Studios, Walt Disney Animation Australia, Walt Disney Television Animation
Продолжительность: 01:16:14
Перевод 1: Профессиональный (полное дублирование) BD EUR
Перевод 2: Профессиональный (двухголосый, закадровый)
Перевод 3: Авторский (одноголосый, закадровый) Юрий Живов
Перевод 4: Авторский (одноголосый, закадровый) Антон Алексеев
Оригинальная аудиодорожка: английская
Субтитры: русские (полные), украинские (полные), английские (полные)
Главы: присутствуют, сохранены оригинальные

Файл:
Формат: MKV
Качество: BDRip 720p (источник: xfiles / Blu-ray Remux [The.Lion.King.3.Hakuna.Matata.2004.1080p.BDRemux.r utracker] / 1080p)
Видео: 1218x720 (5:3), 23.976 fps, MPEG-4 AVC, ~4690 kbps avg, 0.223 bit/pixel
Аудио #1: 48 kHz, AC3 Dolby Digital, 3/2 (L,C,R,l,r) + LFE ch, ~640 kbps avg | Профессиональный (полное дублирование) BD EUR |
Аудио #2: 48 kHz, AC3 Dolby Digital, 3/2 (L,C,R,l,r) + LFE ch, ~384 kbps avg | Профессиональный (двухголосый, закадровый) |
Аудио #3: 48 kHz, AC3 Dolby Digital, 3/2 (L,C,R,l,r) + LFE ch, ~640 kbps avg | Авторский (одноголосый, закадровый) Юрий Живов |
Аудио #4: 48 kHz, AC3 Dolby Digital, 3/2 (L,C,R,l,r) + LFE ch, ~640 kbps avg | Авторский (одноголосый, закадровый) Антон Алексеев |
Аудио #5: 48 kHz, AC3 Dolby Digital, 3/2 (L,C,R,l,r) + LFE ch, ~640 kbps avg | Оригинал |
Сэмпл: скачать
Размер: 4.15 ГБ

MediaInfo

Уникальный идентификатор : 195821848356179705902406370592404449472 (0x9351EA88E6A2D318B561D9E0AB66A8C0)
Полное имя : The.Lion.King.3.Hakuna.Matata.2004.720p.BluRay.4xR us.Eng.-HQCLUB.mkv
Формат : Matroska
Версия формата : Version 2
Размер файла : 4,15 Гбайт
Продолжительность : 1 ч. 16 м.
Общий поток : 7789 Кбит/сек
Название фильма : Король Лев 3: Хакуна матата / The Lion King 1 1/2 / The Lion King 3: Hakuna Matata (2004) BDRip 720p by Elheym [HQCLUB]
Дата кодирования : UTC 2016-06-07 17:31:32
Программа кодирования : mkvmerge v5.2.0 ('I can't explain') built on Dec 18 2011 18:12:03
Библиотека кодирования : libebml v1.2.3 + libmatroska v1.3.0
Обложка : Yes
Attachments : cover.jpg

Видео
Идентификатор : 1
Формат : AVC
Формат/Информация : Advanced Video Codec
Профиль формата : High@L4.1
Параметр CABAC формата : Да
Параметр ReFrames формата : 8 кадров
Идентификатор кодека : V_MPEG4/ISO/AVC
Продолжительность : 1 ч. 16 м.
Битрейт : 4690 Кбит/сек
Ширина : 1218 пикселей
Высота : 720 пикселей
Соотношение сторон : 5:3
Режим частоты кадров : Постоянный
Частота кадров : 23,976 (24000/1001) кадра/сек
Цветовое пространство : YUV
Субдискретизация насыщенности : 4:2:0
Битовая глубина : 8 бит
Тип развёртки : Прогрессивная
Бит/(Пиксели*Кадры) : 0.223
Размер потока : 2,50 Гбайт (60%)
Заголовок : Король Лев 3: Хакуна матата / The Lion King 1 1/2 / The Lion King 3: Hakuna Matata (2004) BDRip 720p by Elheym [HQCLUB]
Библиотека кодирования : x264 core 148 r2692+54 69a6f49 t_mod_Custom [8-bit@all X86_64]
Настройки программы : cabac=1 / ref=8 / deblock=1:-1:-1 / analyse=0x3:0x113 / me=umh / subme=11 / psy=1 / fade_compensate=0.00 / psy_rd=0.60:0.00 / mixed_ref=1 / me_range=32 / chroma_me=1 / trellis=2 / 8x8dct=1 / cqm=0 / deadzone=21,11 / fast_pskip=0 / chroma_qp_offset=-2 / threads=6 / lookahead_threads=2 / sliced_threads=0 / nr=0 / decimate=0 / interlaced=0 / bluray_compat=0 / constrained_intra=0 / fgo=0 / bframes=12 / b_pyramid=2 / b_adapt=2 / b_bias=0 / direct=3 / weightb=1 / open_gop=0 / weightp=2 / keyint=230 / keyint_min=23 / scenecut=40 / intra_refresh=0 / rc_lookahead=80 / rc=crf / mbtree=0 / crf=14.5000 / qcomp=0.70 / qpmin=0:0:0 / qpmax=69:69:69 / qpstep=4 / vbv_maxrate=50000 / vbv_bufsize=62500 / crf_max=0.0 / nal_hrd=none / filler=0 / ip_ratio=1.40 / pb_ratio=1.30 / aq=3:0.50 / aq-sensitivity=10.00 / aq-factor=1.00:1.00:1.00 / aq2=0 / aq3=0 / zones=78,302,b=1.2500/353,377,b=1.5000/564,902,b=1.50000/2695,2790,b=1.4500/16434,16510,b=1.4000/16993,17098,b=1.4000/17275,17348,b=1.3500/17586,17624,b=1.4500/23522,23671,b=1.5000/32495,33214,b=1.5000/43653,43708,b=1.6000/45295,45397,b=1.6000/49316,49403,b=1.4500/49902,50061,b=1.5000/76080,76987,b=1.5000/89592,89843,b=1.6000/90030,90067,b=1.5500/90137,90297,b=1.9000/93617,93674,b=1.7500/96691,96748,b=2.9000/101140,101208,b=1.7500/103178,109294,b=0.3800/109297,109680,b=1.6000
Язык : English
Default : Да
Forced : Нет

Аудио #1
Идентификатор : 2
Формат : AC-3
Формат/Информация : Audio Coding 3
Расширение режима : CM (complete main)
Параметр Endianness формата : Big
Идентификатор кодека : A_AC3
Продолжительность : 1 ч. 16 м.
Вид битрейта : Постоянный
Битрейт : 640 Кбит/сек
Каналы : 6 каналов
Расположение каналов : Front: L C R, Side: L R, LFE
Частота : 48,0 КГц
Частота кадров : 31,250 кадров/сек (1536 spf)
Метод сжатия : С потерями
Размер потока : 349 Мбайт (8%)
Заголовок : АС3 5.1 @ 640 kbps - Dub, BD EUR
Язык : Russian
Default : Нет
Forced : Нет

Аудио #2
Идентификатор : 3
Формат : AC-3
Формат/Информация : Audio Coding 3
Расширение режима : CM (complete main)
Параметр Endianness формата : Big
Идентификатор кодека : A_AC3
Продолжительность : 1 ч. 16 м.
Вид битрейта : Постоянный
Битрейт : 384 Кбит/сек
Каналы : 6 каналов
Расположение каналов : Front: L C R, Side: L R, LFE
Частота : 48,0 КГц
Частота кадров : 31,250 кадров/сек (1536 spf)
Метод сжатия : С потерями
Размер потока : 209 Мбайт (5%)
Заголовок : АС3 5.1 @ 384 kbps - DVO
Язык : Russian
Default : Нет
Forced : Нет

Аудио #3
Идентификатор : 4
Формат : AC-3
Формат/Информация : Audio Coding 3
Расширение режима : CM (complete main)
Параметр Endianness формата : Big
Идентификатор кодека : A_AC3
Продолжительность : 1 ч. 16 м.
Вид битрейта : Постоянный
Битрейт : 640 Кбит/сек
Каналы : 6 каналов
Расположение каналов : Front: L C R, Side: L R, LFE
Частота : 48,0 КГц
Частота кадров : 31,250 кадров/сек (1536 spf)
Метод сжатия : С потерями
Размер потока : 349 Мбайт (8%)
Заголовок : АС3 5.1 @ 640 kbps - AVO, Zhivov
Язык : Russian
Default : Нет
Forced : Нет

Аудио #4
Идентификатор : 5
Формат : AC-3
Формат/Информация : Audio Coding 3
Расширение режима : CM (complete main)
Параметр Endianness формата : Big
Идентификатор кодека : A_AC3
Продолжительность : 1 ч. 16 м.
Вид битрейта : Постоянный
Битрейт : 640 Кбит/сек
Каналы : 6 каналов
Расположение каналов : Front: L C R, Side: L R, LFE
Частота : 48,0 КГц
Частота кадров : 31,250 кадров/сек (1536 spf)
Метод сжатия : С потерями
Размер потока : 349 Мбайт (8%)
Заголовок : АС3 5.1 @ 640 kbps - AVO, Alekseev
Язык : Russian
Default : Нет
Forced : Нет

Аудио #5
Идентификатор : 6
Формат : AC-3
Формат/Информация : Audio Coding 3
Расширение режима : CM (complete main)
Параметр Endianness формата : Big
Идентификатор кодека : A_AC3
Продолжительность : 1 ч. 16 м.
Вид битрейта : Постоянный
Битрейт : 640 Кбит/сек
Каналы : 6 каналов
Расположение каналов : Front: L C R, Side: L R, LFE
Частота : 48,0 КГц
Частота кадров : 31,250 кадров/сек (1536 spf)
Метод сжатия : С потерями
Размер потока : 349 Мбайт (8%)
Заголовок : АС3 5.1 @ 640 kbps - Original
Язык : English
Default : Нет
Forced : Нет

Текст #1
Идентификатор : 7
Формат : UTF-8
Идентификатор кодека : S_TEXT/UTF8
Идентификатор кодека/Информация : UTF-8 Plain Text
Заголовок : Full
Язык : Russian
Default : Нет
Forced : Нет

Текст #2
Идентификатор : 8
Формат : UTF-8
Идентификатор кодека : S_TEXT/UTF8
Идентификатор кодека/Информация : UTF-8 Plain Text
Заголовок : Full
Язык : Ukrainian
Default : Нет
Forced : Нет

Текст #3
Идентификатор : 9
Формат : UTF-8
Идентификатор кодека : S_TEXT/UTF8
Идентификатор кодека/Информация : UTF-8 Plain Text
Заголовок : Full
Язык : English
Default : Нет
Forced : Нет

Меню
00:00:00.000 : :Chapter 01
00:01:56.115 : :Chapter 02
00:08:22.542 : :Chapter 03
00:12:28.164 : :Chapter 04
00:17:00.686 : :Chapter 05
00:22:34.519 : :Chapter 06
00:29:19.466 : :Chapter 07
00:34:20.558 : :Chapter 08
00:38:19.005 : :Chapter 09
00:40:22.169 : :Chapter 10
00:45:33.021 : :Chapter 11
00:50:09.422 : :Chapter 12
00:54:52.455 : :Chapter 13
00:59:02.872 : :Chapter 14
01:06:18.432 : :Chapter 15
01:10:25.012 : :Chapter 16
01:16:14.361 : :Chapter 17

x264 log

x264 [info]: frame I:808 Avg QP:11.59 size:210130
x264 [info]: frame P:26881 Avg QP:14.53 size: 61256
x264 [info]: frame B:81992 Avg QP:15.96 size: 11609

x264 [info]: consecutive B-frames: 3.6% 2.7% 10.5% 37.6% 17.0% 13.9% 3.4% 3.8% 1.5% 0.9% 1.2% 2.5% 1.4%

x264 [info]: ref P L0: 45.6% 4.2% 23.6% 7.1% 7.3% 4.5% 5.0% 2.6% 0.2% 0.0%
x264 [info]: ref B L0: 64.8% 17.2% 8.1% 4.2% 3.0% 1.9% 0.8%
x264 [info]: ref B L1: 93.4% 6.6%




Цитата:
- Спасибо участникам "Народного проекта" форума widescreen: ZombX, GVR232, Multmir, bla_, 48ronin за перевод Антона Алексеева.
- Спасибо multmir за чистый голос Юрия Живова.
- Спасибо -Доцент- за 5.1 дорожку с двухголосым закадровым переводом.


Ссылки для скачивания:

Торрент: Король Лев: Трилогия / The Lion King: Trilogy (1994-2004) BDRip 720p
__________________
Elheym вне форума   Ответить с цитированием
10 пользователя(ей) сказали cпасибо:
al1ksandt (07.06.2016), gubiniliya (08.06.2016), Kingsize87 (08.06.2016), MYSTERYS (16.07.2016), sklif1979 (07.06.2016), SKYZ (09.06.2016), sociolog_melvas (08.06.2016), The next (16.06.2016), TyMaH74 (17.06.2016), yaroslaigor (07.06.2016)
Старый 07.06.2016, 21:33   #2
Sub-эксперт
 
Аватар для Elheym
 
Регистрация: 10.01.2014
Пол: Мужчина
Сообщений: 1,525
Сказал(а) спасибо: 11,694
Поблагодарили 12,058 раз(а) в 1,782 сообщениях
По умолчанию

Помчали. Приятного просмотра.
Долгожданный, обещанный релиз увидел свет. К счастью, не пришлось ждать "три года".
__________________
Elheym вне форума   Ответить с цитированием
8 пользователя(ей) сказали cпасибо:
al1ksandt (07.06.2016), gubiniliya (08.06.2016), Kingsize87 (08.06.2016), MYSTERYS (16.07.2016), sklif1979 (07.06.2016), sociolog_melvas (08.06.2016), The next (16.06.2016), yaroslaigor (07.06.2016)
Старый 07.06.2016, 22:23   #3
Модератор
 
Аватар для sklif1979
 
Регистрация: 03.06.2012
Адрес: Украина, Донецкая обл.
Пол: Мужчина
Сообщений: 2,699
Сказал(а) спасибо: 11,070
Поблагодарили 11,431 раз(а) в 2,741 сообщениях
По умолчанию

Большой и востребованный труд, как по мне. Мое почтение.
__________________
Относись к другим так, как хочешь чтобы относились к тебе...
***
***
sklif1979 вне форума   Ответить с цитированием
5 пользователя(ей) сказали cпасибо:
Elheym (07.06.2016), Kingsize87 (08.06.2016), sociolog_melvas (08.06.2016), The next (16.06.2016), yaroslaigor (07.06.2016)
Старый 07.06.2016, 22:49   #4
Интеллектуал
 
Аватар для yaroslaigor
 
Регистрация: 09.05.2011
Адрес: Україна
Пол: Мужчина
Сообщений: 3,865
Сказал(а) спасибо: 15,276
Поблагодарили 38,790 раз(а) в 4,606 сообщениях
По умолчанию

Ты это сделал! Молодец! Мои поздравления!
__________________
НЕТ ВОЙНЕ!
yaroslaigor вне форума   Ответить с цитированием
4 пользователя(ей) сказали cпасибо:
Elheym (07.06.2016), sklif1979 (08.06.2016), sociolog_melvas (08.06.2016), The next (16.06.2016)
Старый 07.06.2016, 23:24   #5
Sub-эксперт
 
Аватар для Elheym
 
Регистрация: 10.01.2014
Пол: Мужчина
Сообщений: 1,525
Сказал(а) спасибо: 11,694
Поблагодарили 12,058 раз(а) в 1,782 сообщениях
По умолчанию

Спасибо, товарищи. Сам очень рад. Как гора с плеч упала)
__________________
Elheym вне форума   Ответить с цитированием
4 пользователя(ей) сказали cпасибо:
sklif1979 (08.06.2016), sociolog_melvas (08.06.2016), The next (16.06.2016), yaroslaigor (08.06.2016)
Старый 08.06.2016, 00:36   #6
Посетитель
 
Регистрация: 23.08.2011
Адрес: Беларусь, Барановичи
Пол: Мужчина
Сообщений: 176
Сказал(а) спасибо: 718
Поблагодарили 1,103 раз(а) в 179 сообщениях
По умолчанию

Тоже присоединюсь к поздравлением с завершенным долгостроем так сказать. Уж сколько этот релиз в планах провисел =) И работа проделана большая - Спасибо за труды!
gubiniliya вне форума   Ответить с цитированием
4 пользователя(ей) сказали cпасибо:
Elheym (08.06.2016), sklif1979 (08.06.2016), sociolog_melvas (08.06.2016), The next (16.06.2016)
Старый 08.06.2016, 21:28   #7
.
 
Аватар для sociolog_melvas
 
Регистрация: 10.08.2011
Адрес: Николаев
Пол: Мужчина
Сообщений: 3,893
Сказал(а) спасибо: 30,052
Поблагодарили 40,010 раз(а) в 4,563 сообщениях
По умолчанию

Ну наконец-то) появились шансы вернутся к постоянной работе)
sociolog_melvas на форуме   Ответить с цитированием
4 пользователя(ей) сказали cпасибо:
Elheym (09.06.2016), sklif1979 (08.06.2016), The next (16.06.2016), yaroslaigor (08.06.2016)
Ответ

Опции темы
Опции просмотра

Ваши права в разделе
Вы не можете создавать новые темы
Вы не можете отвечать в темах
Вы не можете прикреплять вложения
Вы не можете редактировать свои сообщения

BB коды Вкл.
Смайлы Вкл.
[IMG] код Вкл.
HTML код Выкл.



Текущее время: 15:08. Часовой пояс GMT +3.

Для правообладателей: Форум не предоставляет электронные версии произведений, а содержит ссылки на сторонние ресурсы. Все права на произведения принадлежат правообладателям. Если вы являетесь правообладателем произведения и не желаете чтобы ссылка на него находилась в нашем каталоге, свяжитесь с нами и мы незамедлительно удалим её. Публикация материалов сайта возможна только с разрешения администрации.


Помощь ресурсу
Copyright © 2009 — 2014 R.G. HQCLUB All Rights Reserved.
Powered by vBulletin® Version 3.8.7
Copyright ©2000 - 2017, vBulletin Solutions, Inc. Перевод: zCarot

Яндекс цитирования
Время генерации страницы 0.69158 секунды с 13 запросами