HQCLUB - Форум любителей кино

Загрузить изображение

Вернуться   HQCLUB - Форум любителей кино > Релизы AVC (h264) > Азиатское кино [AVC]

Азиатское кино [AVC] Азиатский кинематограф.

Ответ
 
Опции темы Опции просмотра
Старый 19.02.2016, 19:57   #1
Sub-эксперт
 
Аватар для Elheym
 
Регистрация: 10.01.2014
Пол: Мужчина
Сообщений: 1,516
Сказал(а) спасибо: 11,389
Поблагодарили 11,955 раз(а) в 1,770 сообщениях
По умолчанию Рейд 2 / The Raid 2: Berandal (2014) BDRip-AVC

Рейд 2 / The Raid 2: Berandal (2014) BDRip-AVC
от
HQCLUB



Информация о фильме:
Название: Рейд 2
Оригинальное название: The Raid 2: Berandal
Год выхода: 2014
Жанр: боевик, триллер, криминал
Режиссер: Гарет Эванс / Gareth Evans
В ролях: Ико Ювайс, Арифин Путра, Яян Рухьян, Джули Эстелль, Ока Антара, Алекс Аббад, Сесеп Ариф Рахман, Дони Аламсях, Тио Пакусодево, Рой Мартен

О фильме: Из трех полицейских, выбравшихся из кровавого ада первой части, в живых остается только офицер Рама. Уволившись из спецназа, он пробует начать жизнь заново, но вскоре прошлое жестко напоминает о себе — преступники убивают его брата. Чтобы отомстить, он внедряется в мощный криминальный синдикат, где быстро поднимается до самых вершин бандитской иерархии. Врагов здесь еще больше, и каждый неверный шаг может оказаться последним. Здесь нет ни близких, ни друзей, ни любви, ни тоски, ни жалости!

«Один против всех»




Релиз от -
Автор рипа: Elheym

Выпущено: Индонезия, США ‖ Pt. Merantau Films, XYZ Films
Продолжительность: 02:30:28
Перевод: Профессиональный (полное дублирование) BD RUS
Оригинальная аудиодорожка: индонезийская
Субтитры: русские (полные: BD, Матвеев**), английские (полные х2, SDH, SDH цветные, комментарии режиссера)
Главы: присутствуют, сохранены оригинальные

Дополнительные аудиодорожки:
+ Авторский (одноголосый, закадровый) Ю. Сербин
+ Авторский (одноголосый, закадровый) А. Матвеев**
+ Авторский (одноголосый, закадровый) Д. Есарев**
+ Профессиональный (многоголосый, закадровый) украинский

Файл:
Формат: MKV
Качество: BDRip-AVC (источник: / Blu-ray US [THE_RAID2_2014_HDCLUB] / 1080p)
Видео: 1148x478 (2.40:1), 23.976 fps, MPEG-4 AVC, ~3598 kbps avg, 0.273 bit/pixel
Аудио #1: 48 kHz, AC3 Dolby Digital, 3/2 (L,C,R,l,r) + LFE ch, ~448 kbps avg (DUB.BD.RUS)
Аудио #2: 48 kHz, AC3 Dolby Digital, 3/2 (L,C,R,l,r) + LFE ch, ~448 kbps avg (IND)
Аудио #3: 48 kHz, AC3 Dolby Digital, 3/2 (L,C,R,l,r) + LFE ch, ~448 kbps avg (AVO.SERBIN) (отдельно)
Аудио #4: 48 kHz, AC3 Dolby Digital, 3/2 (L,C,R,l,r) + LFE ch, ~448 kbps avg (VO.MATVEEV**) (отдельно)
Аудио #5: 48 kHz, AC3 Dolby Digital, 3/2 (L,C,R,l,r) + LFE ch, ~448 kbps avg (VO.ESAREV**) (отдельно)
Аудио #6: 48 kHz, AC3 Dolby Digital, 2/0 (L,R) ch, ~192 kbps avg (MVO.UKR) (отдельно)
Размер: 4.82 GB
Сэмпл: скачать

MediaInfo

Уникальный идентификатор : 240348175895489568128248118148459004665 (0xB4D15FF9AEA1E6E18AE7B18F3B3A02F9)
Полное имя : The.Raid.2.Berandal.2014.BDRip-AVC.Rus.Ind.-HQCLUB.mkv
Формат : Matroska
Версия формата : Version 2
Размер файла : 4,82 Гбайт
Продолжительность : 2 ч. 30 м.
Общий поток : 4586 Кбит/сек
Название фильма : Рейд 2 / The Raid 2: Berandal [US] (2014) BDRip-AVC by Elheym [HQCLUB]
Дата кодирования : UTC 2016-02-19 10:00:49
Программа кодирования : mkvmerge v5.2.0 ('I can't explain') built on Dec 18 2011 18:12:03
Библиотека кодирования : libebml v1.2.3 + libmatroska v1.3.0
Обложка : Yes
Attachments : cover.png

Видео
Идентификатор : 1
Формат : AVC
Формат/Информация : Advanced Video Codec
Профиль формата : High@L4
Параметр CABAC формата : Да
Параметр ReFrames формата : 14 кадров
Идентификатор кодека : V_MPEG4/ISO/AVC
Продолжительность : 2 ч. 30 м.
Битрейт : 3598 Кбит/сек
Ширина : 1148 пикселей
Высота : 478 пикселей
Соотношение сторон : 2,40:1
Режим частоты кадров : Постоянный
Частота кадров : 23,976 (24000/1001) кадра/сек
Цветовое пространство : YUV
Субдискретизация насыщенности : 4:2:0
Битовая глубина : 8 бит
Тип развёртки : Прогрессивная
Бит/(Пиксели*Кадры) : 0.273
Размер потока : 3,78 Гбайт (78%)
Заголовок : Рейд 2 / The Raid 2: Berandal [US] (2014) BDRip-AVC by Elheym [HQCLUB]
Библиотека кодирования : x264 core 148 r2665+53 6629127 t_mod_Custom [8-bit@all X86_64]
Настройки программы : cabac=1 / ref=14 / deblock=1:-2:-1 / analyse=0x3:0x113 / me=umh / subme=11 / psy=1 / fade_compensate=0.00 / psy_rd=1.00:0.15 / mixed_ref=1 / me_range=48 / chroma_me=1 / trellis=2 / 8x8dct=1 / cqm=0 / deadzone=21,11 / fast_pskip=0 / chroma_qp_offset=-4 / threads=6 / lookahead_threads=2 / sliced_threads=0 / nr=0 / decimate=1 / interlaced=0 / bluray_compat=0 / constrained_intra=0 / fgo=0 / bframes=13 / b_pyramid=2 / b_adapt=2 / b_bias=0 / direct=3 / weightb=1 / open_gop=0 / weightp=2 / keyint=240 / keyint_min=23 / scenecut=40 / intra_refresh=0 / rc_lookahead=80 / rc=crf / mbtree=0 / crf=19.7900 / qcomp=0.80 / qpmin=0:0:0 / qpmax=69:69:69 / qpstep=4 / vbv_maxrate=20000 / vbv_bufsize=25000 / crf_max=0.0 / nal_hrd=none / filler=0 / ip_ratio=1.40 / pb_ratio=1.30 / aq=2:1.10 / aq-sensitivity=15.00 / aq-factor=1.00:1.00:1.00 / aq2=0 / aq3=3:[1.10:1.10]:[1.10:1.10]:[1.10:1.10]:[1.10:1.10] / aq3-sensitivity=15.00 / aq3-factor=[1.00:1.00]:[1.00:1.00]:[1.00:1.00] / aq3-boundary=192:64:24 / zones=3005,3120,crf=11.4001/3195,3517,crf=11.4001/3674,3851,crf=11.4001/3956,4212,crf=12.2001/4274,4382,crf=11.6001/4467,4550,crf=11.5001/4616,5057,crf=10.8001/5213,5327,crf=11.2001/5395,5570,crf=10.9001/7289,7414,crf=9.9002/7859,9268,b=2.0503/9269,11135,b=1.9004/11989,12672,b=2.2005/14089,14173,b=2.3006/14330,14555,b=2.6007/14556,15026,b=2.4207/15854,16230,b=2.1008/16499,16627,b=2.3009/16752,16846,b=2.2010/16879,16964,b=2.5011/17069,17125,b=2.2012/17182,17683,crf=12.9013/17684,17782,crf=9.9014/17783,17991,crf=13.0015/17992,18694,crf=14.1016/18695,20216,crf=14.2417/21055,21371,b=1.8018/22197,22404,b=1.6019/23405,25295,b=2.0020/27062,29406,b=1.7021/29407,29707,b=1.8722/29925,30353,b=2.0723/30839,31536,b=1.9524/31537,31678,b=2.4025/31679,32293,b=1.8226/32484,34718,b=1.9627/37718,38606,b=1.9627/48919,49500,b=2.1028/49686,49908,b=2.1028/49972,50020,b=2.1028/51258,52221,b=1.8528/53211,53263,b=2.1729/53313,53393,b=2.0030/53492,53663,b=2.0031/53830,53966,b=2.2032/53967,54733,b=1.7633/54923,55593,b=1.8034/55660,55742,b=2.0035/55803,60949,b=1.6636/60950,61610,b=1.7037/61611,63701,b=1.8438/65554,66125,b=1.7639/68305,68838,b=1.4840/68887,70085,b=1.4641/74466,75486,b=1.5042/78607,79454,b=1.7443/84159,85627,b=1.9044/86064,86498,b=1.8545/86534,86681,b=1.7046/88124,89152,b=1.7047/92475,92812,crf=13.6048/93559,94217,crf=12.6049/94441,95014,crf=14.6050/95081,103330,crf=13.8051/106133,108566,crf=11.6052/108671,109083,crf=11.6253/110541,114636,b=2.1054/114760,117441,b=2.3054/121308,121475,b=2.0054/124234,125409,b=1.9054/126121,126635,b=2.0055/126765,126895,b=2.1055/126896,127191,crf=6.6055/127192,127255,crf=10.1055/127256,127482,crf=8.9056/127483,127589,crf=14.9957/127590,127670,crf=14.5058/127671,128171,crf=9.2059/128172,128497,crf=15.2060/128498,128833,crf=11.7061/186183,186218,crf=11.0062/201635,201870,crf=12.4063/201871,202726,crf=12.4064/202727,202770,crf=12.0065/202771,202959,crf=11.9065/202960,203007,crf=10.2065/203008,203613,crf=13.6066/203749,204142,crf=12.9066/204143,204663,crf=12.7066/204664,204717,crf=9.2066/204718,204880,crf=14.1066/204881,205123,crf=16.7066/205124,205976,crf=15.6067/205977,206896,crf=15.9968/206897,207202,crf=10.2069/207203,208342,crf=15.5070/208344,208606,crf=12.2071/208607,208811,crf=10.4472/208812,208910,crf=14.2073/208954,209087,crf=10.2073/209088,209195,crf=16.7074/209278,209329,crf=12.7075/209330,209761,crf=11.2976
Язык : Indonesian
Default : Да
Forced : Нет

Аудио #1
Идентификатор : 2
Формат : AC-3
Формат/Информация : Audio Coding 3
Расширение режима : CM (complete main)
Параметр Endianness формата : Big
Идентификатор кодека : A_AC3
Продолжительность : 2 ч. 30 м.
Вид битрейта : Постоянный
Битрейт : 448 Кбит/сек
Каналы : 6 каналов
Расположение каналов : Front: L C R, Side: L R, LFE
Частота : 48,0 КГц
Частота кадров : 31,250 кадров/сек (1536 spf)
Метод сжатия : С потерями
Размер потока : 482 Мбайт (10%)
Заголовок : АС3 5.1 @ 448 kbps - Dub, BD RUS
Язык : Russian
Default : Нет
Forced : Нет

Аудио #2
Идентификатор : 3
Формат : AC-3
Формат/Информация : Audio Coding 3
Расширение режима : CM (complete main)
Параметр Endianness формата : Big
Идентификатор кодека : A_AC3
Продолжительность : 2 ч. 30 м.
Вид битрейта : Постоянный
Битрейт : 448 Кбит/сек
Каналы : 6 каналов
Расположение каналов : Front: L C R, Side: L R, LFE
Частота : 48,0 КГц
Частота кадров : 31,250 кадров/сек (1536 spf)
Метод сжатия : С потерями
Размер потока : 482 Мбайт (10%)
Заголовок : АС3 5.1 @ 448 kbps - Original
Язык : Indonesian
Default : Нет
Forced : Нет

Текст #1
Идентификатор : 4
Формат : UTF-8
Идентификатор кодека : S_TEXT/UTF8
Идентификатор кодека/Информация : UTF-8 Plain Text
Заголовок : Full, BD
Язык : Russian
Default : Нет
Forced : Нет

Текст #2
Идентификатор : 5
Формат : UTF-8
Идентификатор кодека : S_TEXT/UTF8
Идентификатор кодека/Информация : UTF-8 Plain Text
Заголовок : Full, Matveev [Uncensored]
Язык : Russian
Default : Нет
Forced : Нет

Текст #3
Идентификатор : 6
Формат : UTF-8
Идентификатор кодека : S_TEXT/UTF8
Идентификатор кодека/Информация : UTF-8 Plain Text
Заголовок : Full, v1
Язык : English
Default : Нет
Forced : Нет

Текст #4
Идентификатор : 7
Формат : UTF-8
Идентификатор кодека : S_TEXT/UTF8
Идентификатор кодека/Информация : UTF-8 Plain Text
Заголовок : Full, v2
Язык : English
Default : Нет
Forced : Нет

Текст #5
Идентификатор : 8
Формат : UTF-8
Идентификатор кодека : S_TEXT/UTF8
Идентификатор кодека/Информация : UTF-8 Plain Text
Заголовок : SDH
Язык : English
Default : Нет
Forced : Нет

Текст #6
Идентификатор : 9
Формат : UTF-8
Идентификатор кодека : S_TEXT/UTF8
Идентификатор кодека/Информация : UTF-8 Plain Text
Заголовок : SDH Colored
Язык : English
Default : Нет
Forced : Нет

Текст #7
Идентификатор : 10
Формат : UTF-8
Идентификатор кодека : S_TEXT/UTF8
Идентификатор кодека/Информация : UTF-8 Plain Text
Заголовок : A Director's commentary
Язык : English
Default : Нет
Forced : Нет

Меню
00:00:00.000 : :Chapter 01
00:08:02.315 : :Chapter 02
00:14:03.217 : :Chapter 03
00:21:08.892 : :Chapter 04
00:31:45.486 : :Chapter 05
00:42:22.122 : :Chapter 06
00:50:55.177 : :Chapter 07
01:01:58.423 : :Chapter 08
01:11:49.763 : :Chapter 09
01:24:47.165 : :Chapter 10
01:36:31.994 : :Chapter 11
01:44:18.752 : :Chapter 12
01:48:31.713 : :Chapter 13
01:57:20.283 : :Chapter 14
02:05:59.093 : :Chapter 15
02:20:02.894 : :Chapter 16

x264 log

x264 [info]: frame I:1358 Avg QP:14.94 size: 75635
x264 [info]: frame P:48730 Avg QP:16.89 size: 35707
x264 [info]: frame B:166368 Avg QP:17.85 size: 13931

x264 [info]: consecutive B-frames: 3.4% 3.6% 8.0% 20.5% 14.4% 26.3% 7.3% 8.7% 2.6% 1.1% 1.2% 1.9% 0.7% 0.3%

x264 [info]: ref P L0: 47.0% 9.3% 16.6% 5.7% 5.0% 3.5% 3.3% 1.7% 1.7% 1.3% 1.4% 1.1% 1.1% 1.0% 0.2% 0.0%
x264 [info]: ref B L0: 73.8% 10.9% 4.9% 2.6% 1.9% 1.6% 1.3% 0.8% 0.7% 0.6% 0.5% 0.3% 0.2%
x264 [info]: ref B L1: 93.6% 6.4%




Цитата:
  • За подогнанный дубляж BD RUS спасибо - SAMYAZA
  • Перевод Юрия Сербина выполнен спонсорами ресурса e180 и участниками сервиса "Озвучивание": RAUL, sybir, xRym, zeleniy, king3, tambov68, Ex1l, hdrmv12, exact, sawa090, DanijelKatanec, lex077, BluRayHunter. Работа со звуком: Slimka.
  • Перевод Алексея Матвеева (Doctor Joker) выполнен спонсорами: будулайроманов. Работа со звуком: Переводман.
  • Перевод Дмитрия Есарева выполнен спонсорами: будулайроманов, mihey10, Skazhutin, Mr. X, dikii, Kruj0k. Работа со звуком: Skazhutin.
  • ** - содержит нецензурную лексику!
Ссылки для скачивания:

Торрент: Рейд 2 / The Raid 2: Berandal (2014) BDRip-AVC
__________________


Elheym вне форума   Ответить с цитированием
12 пользователя(ей) сказали cпасибо:
Alex1990T (14.12.2016), Alex_007 (20.02.2016), Drake (20.02.2016), Gellard (19.02.2016), Kingsize87 (19.02.2016), kityara (20.02.2016), MOSFET (19.02.2016), sklif1979 (19.02.2016), SKYZ (20.02.2016), sociolog_melvas (20.02.2016), The next (19.02.2016), yaroslaigor (19.02.2016)
Старый 19.02.2016, 19:57   #2
Sub-эксперт
 
Аватар для Elheym
 
Регистрация: 10.01.2014
Пол: Мужчина
Сообщений: 1,516
Сказал(а) спасибо: 11,389
Поблагодарили 11,955 раз(а) в 1,770 сообщениях
По умолчанию

Погнали. Приятного просмотра.
__________________


Elheym вне форума   Ответить с цитированием
9 пользователя(ей) сказали cпасибо:
Alex_007 (20.02.2016), Gellard (19.02.2016), Kingsize87 (19.02.2016), kityara (20.02.2016), MOSFET (19.02.2016), sklif1979 (19.02.2016), sociolog_melvas (20.02.2016), The next (19.02.2016), yaroslaigor (19.02.2016)
Старый 19.02.2016, 20:12   #3
КотЭ
 
Аватар для Kingsize87
 
Регистрация: 13.10.2009
Пол: Мужчина
Сообщений: 8,139
Сказал(а) спасибо: 15,247
Поблагодарили 76,361 раз(а) в 11,048 сообщениях
По умолчанию

Очень ценю долгий кропотливый труд. Молодец.
Kingsize87 вне форума   Ответить с цитированием
6 пользователя(ей) сказали cпасибо:
Alex_007 (20.02.2016), Elheym (19.02.2016), Gellard (19.02.2016), sklif1979 (19.02.2016), sociolog_melvas (20.02.2016), yaroslaigor (19.02.2016)
Ответ

Опции темы
Опции просмотра

Ваши права в разделе
Вы не можете создавать новые темы
Вы не можете отвечать в темах
Вы не можете прикреплять вложения
Вы не можете редактировать свои сообщения

BB коды Вкл.
Смайлы Вкл.
[IMG] код Вкл.
HTML код Выкл.



Текущее время: 04:58. Часовой пояс GMT +3.

Для правообладателей: Форум не предоставляет электронные версии произведений, а содержит ссылки на сторонние ресурсы. Все права на произведения принадлежат правообладателям. Если вы являетесь правообладателем произведения и не желаете чтобы ссылка на него находилась в нашем каталоге, свяжитесь с нами и мы незамедлительно удалим её. Публикация материалов сайта возможна только с разрешения администрации.


Помощь ресурсу
Copyright © 2009 — 2014 R.G. HQCLUB All Rights Reserved.
Powered by vBulletin® Version 3.8.7
Copyright ©2000 - 2017, vBulletin Solutions, Inc. Перевод: zCarot

Яндекс цитирования
Время генерации страницы 0.22339 секунды с 16 запросами