HQCLUB - Форум любителей кино

Загрузить изображение

Вернуться   HQCLUB - Форум любителей кино > Релизы наших пользователей > Релизы от пользователей.

Релизы от пользователей. Рипы AVI и AVC

Ответ
 
Опции темы Опции просмотра
Старый 02.12.2017, 09:58   #1
Посетитель
 
Аватар для DCF24
 
Регистрация: 18.09.2015
Адрес: Казахстан, Шахтинск
Пол: Мужчина
Сообщений: 85
Сказал(а) спасибо: 57
Поблагодарили 291 раз(а) в 84 сообщениях
По умолчанию Скорость / Speed (1994) BDRip 720p

Скорость / Speed от DCF24



Информация о фильме
Название: Скорость
Оригинальное название: Speed
Жанр: боевик, триллер, криминал, приключения
Год выпуска: 1994
Режиссер: Ян де Бонт / Jan de Bont
В ролях: Киану Ривз, Сандра Буллок, Деннис Хоппер, Джо Мортон, Джефф Дэниелс, Алан Рак, Гленн Пламмер, Ричард Лайнбэк, Бет Грант, Хоторн Джеймс

Страна: США
Студия: 20th Century Fox Film Corporation
Продолжительность: 1:55:53
Перевод: Профессиональный (полное дублирование) VHS
+ Профессиональный (многоголосый закадровый) XX Век Фокс СНГ
+ Профессиональный (многоголосый закадровый) ОРТ
+ Профессиональный (многоголосый закадровый) Карусель
+ Профессиональный (многоголосый закадровый) Премьер Видео
+ Авторский (одноголосый закадровый) Ю. Живов
+ Авторский (одноголосый закадровый) В. Горчаков
+ Авторский (одноголосый закадровый) А. Кашкин
+ Авторский (одноголосый закадровый) С. Визгунов
+ Авторский (одноголосый закадровый) А. Гаврилов
+ Одноголосый закадровый Е. Гаевский
Оригинальная аудиодорожка: Английский
Субтитры: Русские (полные); английские (Full, SDH) (srt/UTF-8)

Описание: Представьте себе девушку, у которой на заднем стекле автомобиля красуется наклейка с восклицательным знаком, чайником и странного вида туфлей с подписью «уважай меня». Теперь представьте эту девушку за рулем гигантского американского автобуса, несущегося по городу на огромной скорости в час пик. Выглядит это довольно забавно, если не знать, что автобус заминирован и может взорваться, если стрелка спидометра опустится ниже пятидесяти миль в час.

Пассажиры в панике, события разворачиваются с бешеной скоростью, а времени до взрыва остается все меньше. На поиски таинственного террориста, который уже доказал серьезность своих намерений, взорвав переполненный людьми лифт, брошены элитные подразделения полиции. Но время идет, а выйти на след преступника так и не удается. В противоборство с террористом вступает лучший боец спецназа Джек Трейвен. Теперь от того, сможет ли он верно распорядиться оставшимися секундами, зависят жизни десятков людей.

«Get ready for rush hour»



Релиз от:
Автор рипа: DCF24

Файл
Формат: MKV
Качество: BDRip 720p исходник: (rutracker / Speed.Remux.CEE.HDCLUB)
Видео: 1280x544 (2.35:1), 23.976 fps, x.264, ~10 914 kbps avg, 0.654 bit/(pixel*frame)
Аудио #1: AC3 Dolby Digital, 48 kHz, 3/2 (L,C,R,l,r) + LFE ch, ~448 kbps | Многоголосый закадровый, (R5) 20-й Век Фокс СНГ
Аудио #2: AC3 Dolby Digital, 48 kHz, 3/2 (L,C,R,l,r) + LFE ch, ~640 kbps | Многоголосый закадровый, Карусель
Аудио #3: AC3 Dolby Digital, 48 kHz, 3/2 (L,C,R,l,r) + LFE ch, ~640 kbps | Многоголосый закадровый, ОРТ
Аудио #4: AC3 Dolby Digital, 48 kHz, 2/0 (L,R) ch, ~192 kbps | Многоголосый закадровый, Премьер Видео
Аудио #5: AC3 Dolby Digital, 48 kHz, 2/0 (L,R) ch, ~192 kbps | Полное дублирование, (VHS)
Аудио #6: AC3 Dolby Digital, 48 kHz, 3/2 (L,C,R,l,r) + LFE ch, ~640 kbps | Одноголосый закадровый, А.Гаврилов
Аудио #7: AC3 Dolby Digital, 48 kHz, 3/2 (L,C,R,l,r) + LFE ch, ~640 kbps | Одноголосый закадровый, В.Горчаков
Аудио #8: AC3 Dolby Digital, 48 kHz, 3/2 (L,C,R,l,r) + LFE ch, ~640 kbps | Одноголосый закадровый, Ю.Живов
Аудио #9: AC3 Dolby Digital, 48 kHz, 3/2 (L,C,R,l,r) + LFE ch, ~640 kbps | Одноголосый закадровый, Е.Гаевский
Аудио #10: AC3 Dolby Digital, 48 kHz, 2/0 (L,R) ch, ~192 kbps | Одноголосый закадровый, С.Визгунов
Аудио #11: AC3 Dolby Digital, 48 kHz, 2/0 (L,R) ch, ~192 kbps | Одноголосый закадровый, А.Кашкин
Аудио #12: AC3 Dolby Digital, 48 kHz, 3/2 (L,C,R,l,r) + LFE ch, ~640 kbps | Оригинал
Размер: 13.45 ГБ (14443508735 байт)
Сэмпл: Скачать
MediaInfo
Общее
Уникальный идентификатор : 200211196971267591265686529864396719474 (0x969F4621400C015B8C3AEEFD53F44572)
Полное имя : E:\Video\Speed.1994.BDRip.720p.WazZzuP.mkv
Формат : Matroska
Версия формата : Version 4 / Version 2
Размер файла : 13,5 Гбайт
Продолжительность : 1 ч. 55 м.
Общий поток : 16,6 Мбит/сек
Название фильма : Speed.1994.BDRip 720p.WazZzuP
Дата кодирования : UTC 2017-11-26 13:00:57
Программа кодирования : mkvmerge v17.0.0 ('Be Ur Friend') 64-bit
Библиотека кодирования : libebml v1.3.5 + libmatroska v1.4.8
Attachments : x264.log / poster / script.avs

Видео
Идентификатор : 1
Формат : AVC
Формат/Информация : Advanced Video Codec
Профиль формата : High@L4.1
Настройки формата : CABAC / 10 Ref Frames
Параметр CABAC формата : Да
Параметр RefFrames формата : 10 кадров
Идентификатор кодека : V_MPEG4/ISO/AVC
Продолжительность : 1 ч. 55 м.
Битрейт : 10,9 Мбит/сек
Ширина : 1280 пикселей
Высота : 544 пикселя
Соотношение сторон : 2,35:1
Режим частоты кадров : Постоянный
Частота кадров : 23,976 (24000/1001) кадра/сек
Цветовое пространство : YUV
Субдискретизация насыщенности : 4:2:0
Битовая глубина : 8 бит
Тип развёртки : Прогрессивная
Бит/(Пиксели*Кадры) : 0.654
Размер потока : 8,84 Гбайт (66%)
Заголовок : Скорость / Speed (1994)
Библиотека кодирования : x264 core 152 r2851kMod ba24899
Настройки программы : cabac=1 / ref=10 / deblock=1:-3:-3 / analyse=0x3:0x133 / me=umh / subme=11 / psy=1 / fade_compensate=0.00 / psy_rd=0.80:0.15 / mixed_ref=1 / me_range=24 / chroma_me=1 / trellis=2 / 8x8dct=1 / cqm=0 / deadzone=21,11 / fast_pskip=0 / chroma_qp_offset=-3 / threads=3 / lookahead_threads=1 / sliced_threads=0 / nr=0 / decimate=0 / interlaced=0 / bluray_compat=0 / constrained_intra=0 / bframes=13 / b_pyramid=2 / b_adapt=2 / b_bias=0 / direct=3 / weightb=1 / open_gop=0 / weightp=2 / keyint=250 / keyint_min=23 / scenecut=40 / intra_refresh=0 / rc_lookahead=60 / rc=crf / mbtree=0 / crf=17.0000 / qcomp=0.75 / qpmin=0 / qpmax=69 / qpstep=4 / vbv_maxrate=62500 / vbv_bufsize=78125 / crf_max=0.0 / nal_hrd=none / filler=0 / ip_ratio=1.30 / pb_ratio=1.20 / aq=3:0.80
Язык : English
Default : Да
Forced : Нет
Цветовой диапазон : Limited
Коэффициенты матрицы : BT.709

Аудио #1
Идентификатор : 2
Формат : AC-3
Формат/Информация : Audio Coding 3
Параметр Endianness формата : Big
Идентификатор кодека : A_AC3
Продолжительность : 1 ч. 55 м.
Вид битрейта : Постоянный
Битрейт : 448 Кбит/сек
Каналы : 6 каналов
Расположение каналов : Front: L C R, Side: L R, LFE
Частота : 48,0 КГц
Частота кадров : 31,250 кадров/сек (1536 SPF)
Битовая глубина : 16 бит
Метод сжатия : С потерями
Размер потока : 371 Мбайт (3%)
Заголовок : Многоголосый закадровый, (R5) 20-й Век Фокс СНГ
Язык : Russian
ServiceKind/String : Complete Main
Default : Да
Forced : Нет

Аудио #2
Идентификатор : 3
Формат : AC-3
Формат/Информация : Audio Coding 3
Параметр Endianness формата : Big
Идентификатор кодека : A_AC3
Продолжительность : 1 ч. 55 м.
Вид битрейта : Постоянный
Битрейт : 640 Кбит/сек
Каналы : 6 каналов
Расположение каналов : Front: L C R, Side: L R, LFE
Частота : 48,0 КГц
Частота кадров : 31,250 кадров/сек (1536 SPF)
Битовая глубина : 16 бит
Метод сжатия : С потерями
Размер потока : 531 Мбайт (4%)
Заголовок : Многоголосый закадровый, Карусель
Язык : Russian
ServiceKind/String : Complete Main
Default : Нет
Forced : Нет

Аудио #3
Идентификатор : 4
Формат : AC-3
Формат/Информация : Audio Coding 3
Параметр Endianness формата : Big
Идентификатор кодека : A_AC3
Продолжительность : 1 ч. 55 м.
Вид битрейта : Постоянный
Битрейт : 640 Кбит/сек
Каналы : 6 каналов
Расположение каналов : Front: L C R, Side: L R, LFE
Частота : 48,0 КГц
Частота кадров : 31,250 кадров/сек (1536 SPF)
Битовая глубина : 16 бит
Метод сжатия : С потерями
Размер потока : 531 Мбайт (4%)
Заголовок : Многоголосый закадровый, ОРТ
Язык : Russian
ServiceKind/String : Complete Main
Default : Нет
Forced : Нет

Аудио #4
Идентификатор : 5
Формат : AC-3
Формат/Информация : Audio Coding 3
Параметр Endianness формата : Big
Идентификатор кодека : A_AC3
Продолжительность : 1 ч. 55 м.
Вид битрейта : Постоянный
Битрейт : 192 Кбит/сек
Каналы : 2 канала
Расположение каналов : Front: L R
Частота : 48,0 КГц
Частота кадров : 31,250 кадров/сек (1536 SPF)
Битовая глубина : 16 бит
Метод сжатия : С потерями
Размер потока : 159 Мбайт (1%)
Заголовок : Многоголосый закадровый, Премьер Видео
Язык : Russian
ServiceKind/String : Complete Main
Default : Нет
Forced : Нет

Аудио #5
Идентификатор : 6
Формат : AC-3
Формат/Информация : Audio Coding 3
Параметр Endianness формата : Big
Идентификатор кодека : A_AC3
Продолжительность : 1 ч. 55 м.
Вид битрейта : Постоянный
Битрейт : 192 Кбит/сек
Каналы : 2 канала
Расположение каналов : Front: L R
Частота : 48,0 КГц
Частота кадров : 31,250 кадров/сек (1536 SPF)
Битовая глубина : 16 бит
Метод сжатия : С потерями
Размер потока : 159 Мбайт (1%)
Заголовок : Полное дублирование, (VHS)
Язык : Russian
ServiceKind/String : Complete Main
Default : Нет
Forced : Нет

Аудио #6
Идентификатор : 7
Формат : AC-3
Формат/Информация : Audio Coding 3
Параметр Endianness формата : Big
Идентификатор кодека : A_AC3
Продолжительность : 1 ч. 55 м.
Вид битрейта : Постоянный
Битрейт : 640 Кбит/сек
Каналы : 6 каналов
Расположение каналов : Front: L C R, Side: L R, LFE
Частота : 48,0 КГц
Частота кадров : 31,250 кадров/сек (1536 SPF)
Битовая глубина : 16 бит
Метод сжатия : С потерями
Размер потока : 531 Мбайт (4%)
Заголовок : Одноголосый закадровый, Гаврилов
Язык : Russian
ServiceKind/String : Complete Main
Default : Нет
Forced : Нет

Аудио #7
Идентификатор : 8
Формат : AC-3
Формат/Информация : Audio Coding 3
Параметр Endianness формата : Big
Идентификатор кодека : A_AC3
Продолжительность : 1 ч. 55 м.
Вид битрейта : Постоянный
Битрейт : 640 Кбит/сек
Каналы : 6 каналов
Расположение каналов : Front: L C R, Side: L R, LFE
Частота : 48,0 КГц
Частота кадров : 31,250 кадров/сек (1536 SPF)
Битовая глубина : 16 бит
Метод сжатия : С потерями
Размер потока : 531 Мбайт (4%)
Заголовок : Одноголосый закадровый, Горчаков
Язык : Russian
ServiceKind/String : Complete Main
Default : Нет
Forced : Нет

Аудио #8
Идентификатор : 9
Формат : AC-3
Формат/Информация : Audio Coding 3
Параметр Endianness формата : Big
Идентификатор кодека : A_AC3
Продолжительность : 1 ч. 55 м.
Вид битрейта : Постоянный
Битрейт : 640 Кбит/сек
Каналы : 6 каналов
Расположение каналов : Front: L C R, Side: L R, LFE
Частота : 48,0 КГц
Частота кадров : 31,250 кадров/сек (1536 SPF)
Битовая глубина : 16 бит
Метод сжатия : С потерями
Размер потока : 531 Мбайт (4%)
Заголовок : Одноголосый закадровый, Живов
Язык : Russian
ServiceKind/String : Complete Main
Default : Нет
Forced : Нет

Аудио #9
Идентификатор : 10
Формат : AC-3
Формат/Информация : Audio Coding 3
Параметр Endianness формата : Big
Идентификатор кодека : A_AC3
Продолжительность : 1 ч. 55 м.
Вид битрейта : Постоянный
Битрейт : 640 Кбит/сек
Каналы : 6 каналов
Расположение каналов : Front: L C R, Side: L R, LFE
Частота : 48,0 КГц
Частота кадров : 31,250 кадров/сек (1536 SPF)
Битовая глубина : 16 бит
Метод сжатия : С потерями
Размер потока : 531 Мбайт (4%)
Заголовок : Одноголосый закадровый, Гаевский
Язык : Russian
ServiceKind/String : Complete Main
Default : Нет
Forced : Нет

Аудио #10
Идентификатор : 11
Формат : AC-3
Формат/Информация : Audio Coding 3
Параметр Endianness формата : Big
Идентификатор кодека : A_AC3
Продолжительность : 1 ч. 55 м.
Вид битрейта : Постоянный
Битрейт : 192 Кбит/сек
Каналы : 2 канала
Расположение каналов : Front: L R
Частота : 48,0 КГц
Частота кадров : 31,250 кадров/сек (1536 SPF)
Битовая глубина : 16 бит
Метод сжатия : С потерями
Размер потока : 159 Мбайт (1%)
Заголовок : Одноголосый закадровый, Визгунов
Язык : Russian
ServiceKind/String : Complete Main
Default : Нет
Forced : Нет

Аудио #11
Идентификатор : 12
Формат : AC-3
Формат/Информация : Audio Coding 3
Параметр Endianness формата : Big
Идентификатор кодека : A_AC3
Продолжительность : 1 ч. 55 м.
Вид битрейта : Постоянный
Битрейт : 192 Кбит/сек
Каналы : 2 канала
Расположение каналов : Front: L R
Частота : 48,0 КГц
Частота кадров : 31,250 кадров/сек (1536 SPF)
Битовая глубина : 16 бит
Метод сжатия : С потерями
Размер потока : 159 Мбайт (1%)
Заголовок : Одноголосый закадровый, Кашкин
Язык : Russian
ServiceKind/String : Complete Main
Default : Нет
Forced : Нет

Аудио #12
Идентификатор : 13
Формат : AC-3
Формат/Информация : Audio Coding 3
Параметр Endianness формата : Big
Идентификатор кодека : A_AC3
Продолжительность : 1 ч. 55 м.
Вид битрейта : Постоянный
Битрейт : 640 Кбит/сек
Каналы : 6 каналов
Расположение каналов : Front: L C R, Side: L R, LFE
Частота : 48,0 КГц
Частота кадров : 31,250 кадров/сек (1536 SPF)
Битовая глубина : 16 бит
Метод сжатия : С потерями
Размер потока : 531 Мбайт (4%)
Заголовок : Оригинал
Язык : English
ServiceKind/String : Complete Main
Default : Нет
Forced : Нет

Текст #1
Идентификатор : 14
Формат : UTF-8
Идентификатор кодека : S_TEXT/UTF8
Идентификатор кодека/Информация : UTF-8 Plain Text
Продолжительность : 1 ч. 46 м.
Битрейт : 86 бит/сек
ElementCount : 1618
Размер потока : 68,0 Кбайт (0%)
Язык : Russian
Default : Нет
Forced : Нет

Текст #2
Идентификатор : 15
Формат : UTF-8
Идентификатор кодека : S_TEXT/UTF8
Идентификатор кодека/Информация : UTF-8 Plain Text
Продолжительность : 1 ч. 50 м.
Битрейт : 83 бит/сек
ElementCount : 1585
Размер потока : 67,1 Кбайт (0%)
Язык : Russian
Default : Нет
Forced : Нет

Текст #3
Идентификатор : 16
Формат : UTF-8
Идентификатор кодека : S_TEXT/UTF8
Идентификатор кодека/Информация : UTF-8 Plain Text
Продолжительность : 1 ч. 51 м.
Битрейт : 50 бит/сек
ElementCount : 1084
Размер потока : 41,1 Кбайт (0%)
Язык : English
Default : Нет
Forced : Нет

Текст #4
Идентификатор : 17
Формат : UTF-8
Идентификатор кодека : S_TEXT/UTF8
Идентификатор кодека/Информация : UTF-8 Plain Text
Продолжительность : 1 ч. 51 м.
Битрейт : 64 бит/сек
ElementCount : 1369
Размер потока : 52,4 Кбайт (0%)
Язык : English
Default : Нет
Forced : Нет

Меню
00:00:00.000 : en:Main Titles
00:04:19.550 : en:Hole the Elevator
00:06:04.280 : en:L.a.P.D. Bomb Squad
00:08:27.089 : enown the Shaft
00:11:17.885 : en:A Gut Feeling
00:15:23.714 : en:Perilous Rescue
00:17:38.223 : en:He's Here!
00:23:21.817 : en:Heroes
00:26:43.768 : en:The Game Begins
00:31:01.776 : en:The Bus
00:35:05.520 : en:High Speed Pursuit with "Tune Man"
00:40:23.587 : en:Jack on Board
00:44:32.753 : en:Under the Bus
00:48:46.506 : en:Through the Streets; a Hard Right
00:53:09.186 : en:An Empty Freeway
00:55:44.215 : en:Passenger Transfer
00:58:51.819 : en:Watch Your Step
01:02:19.444 : en:Leap of Faith
01:07:38.387 : en:Circling the Runway
01:08:54.547 : en:Jack Gets Off
01:11:51.515 : en:The Plan
01:15:16.845 : en:Howard Payne
01:15:40.536 : en:Belly of the Beast
01:19:33.518 : en:A Costly Mistake
01:23:27.585 : en:Video Games
01:27:04.636 : en:Evacuation
01:32:57.196 : en:The Trap
01:37:06.028 : en:Going Underground
01:40:28.230 : en:On the Train
01:42:19.883 : en:Howard's Headache
01:46:05.776 : en:Full Speed Ahead
01:50:06.266 : en:End Credits
x.264log
avs4x264mod script.avs --preset veryslow --crf 17 -m 11 --bframes 13 --ref 10 -f -3:-3 --qcomp 0.75 --psy-rd 0.8:0.15 --aq-mode 3 --aq-strength 0.8 --ipratio 1.3 --pbratio 1.2 --vbv-maxrate 62500 --vbv-bufsize 78125 --no-mbtree --no-dct-decimate --no-fast-pskip --colormatrix bt709 --sar 1/1 --log-file encode.log -o encode.mkv

x264 [info]: 1280x544p 1:1 @ 24000/1001 fps (cfr)
x264 [info]: using SAR=1/1
x264 [info]: using cpu capabilities: MMX2 SSE2Fast SSSE3 SSE4.1 Cache64
x264 [info]: profile High, level 4.1
x264 [info]: cabac=1 ref=10 deblock=1:-3:-3 analyse=0x3:0x133 me=umh subme=11 psy=1 fade_compensate=0.00 psy_rd=0.80:0.15 mixed_ref=1 me_range=24 chroma_me=1 trellis=2 8x8dct=1 cqm=0 deadzone=21,11 fast_pskip=0 chroma_qp_offset=-3 threads=3 lookahead_threads=1 sliced_threads=0 nr=0 decimate=0 interlaced=0 bluray_compat=0 constrained_intra=0 bframes=13 b_pyramid=2 b_adapt=2 b_bias=0 direct=3 weightb=1 open_gop=0 weightp=2 keyint=250 keyint_min=23 scenecut=40 intra_refresh=0 rc_lookahead=60 rc=crf mbtree=0 crf=17.0000 qcomp=0.75 qpmin=0 qpmax=69 qpstep=4 vbv_maxrate=62500 vbv_bufsize=78125 crf_max=0.0 nal_hrd=none filler=0 ip_ratio=1.30 pb_ratio=1.20 aq=3:0.80
x264 [info]: frame I:1042 Avg QP:15.28 size:113619
x264 [info]: frame P:36979 Avg QP:16.51 size: 79384
x264 [info]: frame B:128703 Avg QP:17.91 size: 49983
x264 [info]: consecutive B-frames: 2.0% 3.2% 9.1% 22.5% 18.3% 32.5% 5.5% 2.3% 1.5% 1.2% 0.7% 0.6% 0.4% 0.4%
x264 [info]: mb I I16..4: 23.4% 57.4% 19.2%
x264 [info]: mb P I16..4: 13.1% 41.7% 6.6% P16..4: 11.5% 15.6% 7.3% 1.6% 0.1% skip: 2.5%
x264 [info]: mb B I16..4: 4.4% 15.8% 1.2% B16..8: 25.0% 26.0% 6.6% direct:12.9% skip: 8.2% L0:39.6% L1:29.7% BI:30.7%
x264 [info]: 8x8 transform intra:70.9% inter:42.9%
x264 [info]: direct mvs spatial:100.0% temporal:0.0%
x264 [info]: coded y,uvDC,uvAC intra: 98.0% 93.9% 76.8% inter: 66.9% 56.3% 17.1%
x264 [info]: i16 v,h,dc,p: 2% 1% 39% 57%
x264 [info]: i8 v,h,dc,ddl,ddr,vr,hd,vl,hu: 11% 12% 19% 8% 9% 9% 10% 10% 13%
x264 [info]: i4 v,h,dc,ddl,ddr,vr,hd,vl,hu: 8% 9% 8% 10% 15% 13% 13% 11% 14%
x264 [info]: i8c dc,h,v,p: 49% 22% 17% 13%
x264 [info]: Weighted P-Frames: Y:5.2% UV:4.0%
x264 [info]: ref P L0: 40.4% 12.3% 19.2% 7.4% 6.5% 4.0% 4.0% 2.2% 2.3% 1.7% 0.1% 0.0%
x264 [info]: ref B L0: 74.1% 11.8% 5.4% 2.9% 2.0% 1.6% 1.3% 0.6% 0.2%
x264 [info]: ref B L1: 94.8% 5.2%
x264 [info]: kb/s:10914.17
x264 [info]: encoded 166724 frames, 1.63 fps, 10914.17 kb/s, duration 28:20:34.35
Source vs encode vs Ang+ vs CRiSC









AVS Script
FFVideoSource("E:\coding\in work\00000.m2ts_2eng.mkv").Crop (0,132,-0,-132)

ConditionalFilter(last, ImageSource("C:\Users\User\Pictures\patch#1.png"). ConvertToYV12(matrix="Rec709"), "Filtering", "<", "1")
ConditionalFilter(last, ImageSource("C:\Users\User\Pictures\patch#2.png"). ConvertToYV12(matrix="Rec709"), "Filtering", "<", "2")
ConditionalReader("patch.txt", "Filtering")

BalanceBorders(0, 0, 2, 0)
BalanceBorders(0, 0, 2, 0, thresh=128, blur=1)

Spline36Resize(1280,544)
------------------------------
Patch.txt
Type int
Default 0

106894 1
106965 2
Скриншоты
Цитата:
Видео: За основу взято европейское издание. Сравнение трансферов. Кадры #106894,106965 отфильтрованы в Photoshop (см. сравнения). BalanceBorder использован, чтобы избавиться от ошибки аспектов.
Аудио: Звуковые дорожки #1,2,5,6,7,8,12 с исходника. Дорожки #3,4,9,10,11 с раздачи Kingsize87. Есть еще дорога Киномании по содержанию она абсолютно идентична Карусели, здесь оставил дорогу лучшего качества.
Субтитры: #1,3 распознаны с исходника. #2,4 найдены в интернете.
Главы: Сохранены оригинальные главы с Blu-Ray (подписаны).
P.s многие хвалят озвучку ОРТ. Приятного просмотра=)
Ссылки для скачивания:

Торрент: Скорость / Speed (1994) BDRip 720p

Последний раз редактировалось DCF24; 02.12.2017 в 11:46. Причина: .
DCF24 вне форума   Ответить с цитированием
4 пользователя(ей) сказали cпасибо:
Elheym (04.12.2017), Save HQCLUB (02.12.2017), sklif1979 (02.12.2017), Самаритянин (02.12.2017)
Ответ

Опции темы
Опции просмотра

Ваши права в разделе
Вы не можете создавать новые темы
Вы не можете отвечать в темах
Вы не можете прикреплять вложения
Вы не можете редактировать свои сообщения

BB коды Вкл.
Смайлы Вкл.
[IMG] код Вкл.
HTML код Выкл.



Текущее время: 17:05. Часовой пояс GMT +3.

Для правообладателей: Форум не предоставляет электронные версии произведений, а содержит ссылки на сторонние ресурсы. Все права на произведения принадлежат правообладателям. Если вы являетесь правообладателем произведения и не желаете чтобы ссылка на него находилась в нашем каталоге, свяжитесь с нами и мы незамедлительно удалим её. Публикация материалов сайта возможна только с разрешения администрации.


Помощь ресурсу
Copyright © 2009 — 2014 R.G. HQCLUB All Rights Reserved.
Powered by vBulletin® Version 3.8.7
Copyright ©2000 - 2018, vBulletin Solutions, Inc. Перевод: zCarot

Яндекс цитирования
Время генерации страницы 0.40961 секунды с 15 запросами