HQCLUB - Форум любителей кино

Загрузить изображение

Вернуться   HQCLUB - Форум любителей кино > Релизы наших пользователей > Релизы от пользователей.

Релизы от пользователей. Рипы AVI и AVC

Ответ
 
Опции темы Опции просмотра
Старый 30.04.2017, 21:07   #1
Посетитель
 
Аватар для DCF24
 
Регистрация: 18.09.2015
Адрес: Казахстан, Шахтинск
Пол: Мужчина
Сообщений: 77
Сказал(а) спасибо: 55
Поблагодарили 272 раз(а) в 77 сообщениях
По умолчанию День Сурка / Groundhog Day (1993) BDRip 720p

День Сурка / Groundhog Day от DCF



Информация о фильме
Название: День Сурка
Оригинальное название: Groundhog Day
Жанр: фэнтези, мелодрама, комедия
Год выпуска: 1993
Режиссер: Харольд Рэмис / Harold Ramis
В ролях: Билл Мюррей, Энди МакДауэлл, Крис Эллиот, Стивен Тоболовски, Брайан Дойл-Мюррей, Марита Герати, Анджела Пэтон, Рик Дукомман, Рик Овертон, Робин Дьюк

Страна: США
Студия: Columbia Pictures Corporation
Продолжительность: 01:41:04
Перевод: Профессиональный (многоголосый закадровый)[Blu-ray CEE] + Профессиональный (многоголосый закадровый)[ОРТ] + Профессиональный (многоголосый закадровый)[РТР] + Профессиональный (многоголосый закадровый)[Ren-TV] + Авторский (одноголосый закадровый)[Ю. Живов] + Авторский (одноголосый закадровый)[М. Ошурков] + Авторский (одноголосый закадровый)[Matros, Crystal Digital Video] + Авторский (одноголосый закадровый)[С. Визгунов] + Авторский (одноголосый закадровый)[А. Гаврилов] + Любительский (одноголосый закадровый)
Cубтитры: Русские (полные; Victor D., Alex Raynor, sunny-sko, Igor Gindin, GЕLULА & СО, Лицензия), английские (Full)
Оригинальная аудиодорожка: Английский

Описание: Телевизионный комментатор Фил Коннорс каждый год приезжает в маленький городок в штате Пенсильвания на празднование Дня сурка. Но на этот раз веселье рискует зайти слишком далеко. Время сыграло с ним злую шутку: оно взяло да и остановилось. Теперь на календаре Фила чернеет одна и та же дата — 2 февраля, из которой он никак не может выбраться. Неунывающий ведущий пытается извлечь выгоду из своего комичного положения: впереди у него уйма времени и безмятежное предсказуемое будущее. Отныне с ним не случится ничего плохого… и ничего хорошего. У Фила осталась одна заветная мечта, простая и незамысловатая — 3 февраля…

«Это худший день в вашей жизни. Может быть, пережить его снова?»



Релиз от:
Автор рипа: DCF24

Файл
Формат: MKV
Качество: BDRip 720p исходник: (m-team / Groundhog.Day.1993.1080p.BluRay.AVC.DTS-HD.MA.5.1-9011@MTeam)
Видео: 1280x696 (1.85:1), 23.976 fps, x.264 ~7 660 kbps avg, 0.359 bit/(pixel*frame)
Аудио #1: 48 kHz, AC3 Dolby Digital, 3/2 (L,C,R,l,r) + LFE ch, ~448 kbps avg | Многоголосый закадровый Blu-ray CEE
Аудио #2: 48 kHz, AC3, 3/2 (L,C,R,l,r) + LFE ch, ~448 kbps avg | Многоголосый закадровый ОРТ
Аудио #3: 48 kHz, AC3, 2/0 (L,R) ch, ~192 kbps avg | Многоголосый закадровый, РТР (VHSRip)
Аудио #4: 48 kHz, AC3, 2/0 (L,R) ch, ~192 kbps avg | Многоголосый закадровый, Ren-TV
Аудио #5: 48 kHz, AC3, 2/0 (L,R) ch, ~192 kbps avg | Одноголосый закадровый, Ю. Живов
Аудио #6: 48 kHz, AC3, 2/0 (L,R) ch, ~192 kbps avg | Одноголосый закадровый, М. Ошурков
Аудио #7: 48 kHz, AC3, 2/0 (L,R) ch, ~192 kbps avg | Одноголосый закадровый
Аудио #8: 48 kHz, DTS, 3/2 (L,C,R,l,r) + LFE ch, ~1509 kbps avg | Одноголосый закадровый, CDV - Matros
Аудио #9: 48 kHz, DTS, 3/2 (L,C,R,l,r) + LFE ch, ~1509 kbps avg | Одноголосый закадровый, С. Визгунов
Аудио #10: 48 kHz, DTS, 3/2 (L,C,R,l,r) + LFE ch, ~1509 kbps avg | Одноголосый закадровый, А. Гаврилов
Аудио #11: 48 kHz, DTS, 3/2 (L,C,R,l,r) + LFE ch, ~1509 kbps avg | Оригинал
Размер: 10.09 GB (11795418068 Bytes)
Сэмпл: Скачать



MediaInfo
Общее
Уникальный идентификатор : 199626324993722459618384921801513802540 (0x962EA1B70C411F66A000E69C07D09B2C)
Полное имя : D:\Video\Groundhog Day.1993.BDRip.720p.JPN.WazZzuP.mkv
Формат : Matroska
Версия формата : Version 4 / Version 2
Размер файла : 11,0 Гбайт
Продолжительность : 1 ч. 41 м.
Общий поток : 15,6 Мбит/сек
Название фильма : Groundhog Day.1993.BDRip.720p.JPN.WazZzuP
Дата кодирования : UTC 2017-04-19 14:44:01
Программа кодирования : mkvmerge v10.0.0 ('To Drown In You') 32bit
Библиотека кодирования : libebml v1.3.4 + libmatroska v1.4.5
Attachments : poster

Видео
Идентификатор : 1
Формат : AVC
Формат/Информация : Advanced Video Codec
Профиль формата : High@L4
Параметр CABAC формата : Да
Параметр ReFrames формата : 9 кадров
Идентификатор кодека : V_MPEG4/ISO/AVC
Продолжительность : 1 ч. 41 м.
Битрейт : 7660 Кбит/сек
Ширина : 1280 пикселей
Высота : 696 пикселей
Соотношение сторон : 1,85:1
Соотношение сторон в оригинале : 1,85:1
Режим частоты кадров : Постоянный
Частота кадров : 23,976 (24000/1001) кадра/сек
Цветовое пространство : YUV
Субдискретизация насыщенности : 4:2:0
Битовая глубина : 8 бит
Тип развёртки : Прогрессивная
Бит/(Пиксели*Кадры) : 0.359
Размер потока : 5,41 Гбайт (49%)
Заголовок : День сурка / Groundhog Day (1993)
Библиотека кодирования : x264 core 148 r2744kMod b97ae06
Настройки программы : cabac=1 / ref=9 / deblock=1:-2:-2 / analyse=0x3:0x133 / me=umh / subme=11 / psy=1 / fade_compensate=0.00 / psy_rd=1.00:0.25 / mixed_ref=1 / me_range=48 / chroma_me=1 / trellis=2 / 8x8dct=1 / cqm=0 / deadzone=6,6 / fast_pskip=0 / chroma_qp_offset=-4 / threads=3 / lookahead_threads=1 / sliced_threads=0 / nr=0 / decimate=0 / interlaced=0 / bluray_compat=0 / constrained_intra=0 / bframes=9 / b_pyramid=2 / b_adapt=2 / b_bias=0 / direct=3 / weightb=1 / open_gop=0 / weightp=2 / keyint=250 / keyint_min=23 / scenecut=40 / intra_refresh=0 / rc=crf / mbtree=0 / crf=18.5000 / qcomp=0.80 / qpmin=0 / qpmax=69 / qpstep=4 / ip_ratio=1.10 / pb_ratio=1.10 / aq=1:0.50
Язык : English
Default : Да
Forced : Нет
Цветовой диапазон : Limited
Коэффициенты матрицы : BT.709

Аудио #1
Идентификатор : 2
Формат : AC-3
Формат/Информация : Audio Coding 3
Параметр Endianness формата : Big
Идентификатор кодека : A_AC3
Продолжительность : 1 ч. 41 м.
Вид битрейта : Постоянный
Битрейт : 448 Кбит/сек
Каналы : 6 каналов
Расположение каналов : Front: L C R, Side: L R, LFE
Частота : 48,0 КГц
Частота кадров : 31,250 кадров/сек (1536 spf)
Битовая глубина : 16 бит
Метод сжатия : С потерями
Размер потока : 324 Мбайт (3%)
Заголовок : Многоголосый закадровый, Видеосервис / Blu-ray CEE
Язык : Russian
ServiceKind/String : Complete Main
Default : Да
Forced : Нет

Аудио #2
Идентификатор : 3
Формат : AC-3
Формат/Информация : Audio Coding 3
Параметр Endianness формата : Big
Идентификатор кодека : A_AC3
Продолжительность : 1 ч. 41 м.
Вид битрейта : Постоянный
Битрейт : 448 Кбит/сек
Каналы : 6 каналов
Расположение каналов : Front: L C R, Side: L R, LFE
Частота : 48,0 КГц
Частота кадров : 31,250 кадров/сек (1536 spf)
Битовая глубина : 16 бит
Метод сжатия : С потерями
Размер потока : 324 Мбайт (3%)
Заголовок : Многоголосый закадровый, ОРТ
Язык : Russian
ServiceKind/String : Complete Main
Default : Нет
Forced : Нет

Аудио #3
Идентификатор : 4
Формат : AC-3
Формат/Информация : Audio Coding 3
Параметр Endianness формата : Big
Идентификатор кодека : A_AC3
Продолжительность : 1 ч. 41 м.
Вид битрейта : Постоянный
Битрейт : 192 Кбит/сек
Каналы : 2 канала
Расположение каналов : Front: L R
Частота : 48,0 КГц
Частота кадров : 31,250 кадров/сек (1536 spf)
Битовая глубина : 16 бит
Метод сжатия : С потерями
Размер потока : 139 Мбайт (1%)
Заголовок : Многоголосый закадровый, РТР (VHSRip)
Язык : Russian
ServiceKind/String : Complete Main
Default : Нет
Forced : Нет

Аудио #4
Идентификатор : 5
Формат : AC-3
Формат/Информация : Audio Coding 3
Параметр Endianness формата : Big
Идентификатор кодека : A_AC3
Продолжительность : 1 ч. 41 м.
Вид битрейта : Постоянный
Битрейт : 192 Кбит/сек
Каналы : 2 канала
Расположение каналов : Front: L R
Частота : 48,0 КГц
Частота кадров : 31,250 кадров/сек (1536 spf)
Битовая глубина : 16 бит
Метод сжатия : С потерями
Размер потока : 139 Мбайт (1%)
Заголовок : Многоголосый закадровый, Ren-TV
Язык : Russian
ServiceKind/String : Complete Main
Default : Нет
Forced : Нет

Аудио #5
Идентификатор : 6
Формат : AC-3
Формат/Информация : Audio Coding 3
Параметр Endianness формата : Big
Идентификатор кодека : A_AC3
Продолжительность : 1 ч. 41 м.
Вид битрейта : Постоянный
Битрейт : 192 Кбит/сек
Каналы : 2 канала
Расположение каналов : Front: L R
Частота : 48,0 КГц
Частота кадров : 31,250 кадров/сек (1536 spf)
Битовая глубина : 16 бит
Метод сжатия : С потерями
Размер потока : 139 Мбайт (1%)
Заголовок : Одноголосый закадровый, Ю. Живов
Язык : Russian
ServiceKind/String : Complete Main
Default : Нет
Forced : Нет

Аудио #6
Идентификатор : 7
Формат : AC-3
Формат/Информация : Audio Coding 3
Параметр Endianness формата : Big
Идентификатор кодека : A_AC3
Продолжительность : 1 ч. 41 м.
Вид битрейта : Постоянный
Битрейт : 192 Кбит/сек
Каналы : 2 канала
Расположение каналов : Front: L R
Частота : 48,0 КГц
Частота кадров : 31,250 кадров/сек (1536 spf)
Битовая глубина : 16 бит
Метод сжатия : С потерями
Размер потока : 139 Мбайт (1%)
Заголовок : Одноголосый закадровый, М. Ошурков
Язык : Russian
ServiceKind/String : Complete Main
Default : Нет
Forced : Нет

Аудио #7
Идентификатор : 8
Формат : AC-3
Формат/Информация : Audio Coding 3
Параметр Endianness формата : Big
Идентификатор кодека : A_AC3
Продолжительность : 1 ч. 41 м.
Вид битрейта : Постоянный
Битрейт : 192 Кбит/сек
Каналы : 2 канала
Расположение каналов : Front: L R
Частота : 48,0 КГц
Частота кадров : 31,250 кадров/сек (1536 spf)
Битовая глубина : 16 бит
Метод сжатия : С потерями
Размер потока : 139 Мбайт (1%)
Заголовок : Одноголосый закадровый
Язык : Russian
ServiceKind/String : Complete Main
Default : Нет
Forced : Нет

Аудио #8
Идентификатор : 9
Формат : DTS
Формат/Информация : Digital Theater Systems
Режим : 16
Параметр Endianness формата : Big
Идентификатор кодека : A_DTS
Продолжительность : 1 ч. 41 м.
Вид битрейта : Постоянный
Битрейт : 1509 Кбит/сек
Каналы : 6 каналов
Расположение каналов : Front: L C R, Side: L R, LFE
Частота : 48,0 КГц
Частота кадров : 93,750 кадра/сек (512 spf)
Битовая глубина : 24 бит
Метод сжатия : С потерями
Размер потока : 1,07 Гбайт (10%)
Заголовок : Одноголосый закадровый, CDV - Matros
Язык : Russian
Default : Нет
Forced : Нет

Аудио #9
Идентификатор : 10
Формат : DTS
Формат/Информация : Digital Theater Systems
Режим : 16
Параметр Endianness формата : Big
Идентификатор кодека : A_DTS
Продолжительность : 1 ч. 41 м.
Вид битрейта : Постоянный
Битрейт : 1509 Кбит/сек
Каналы : 6 каналов
Расположение каналов : Front: L C R, Side: L R, LFE
Частота : 48,0 КГц
Частота кадров : 93,750 кадра/сек (512 spf)
Битовая глубина : 24 бит
Метод сжатия : С потерями
Размер потока : 1,07 Гбайт (10%)
Заголовок : Одноголосый закадровый, С. Визгунов
Язык : Russian
Default : Нет
Forced : Нет

Аудио #10
Идентификатор : 11
Формат : DTS
Формат/Информация : Digital Theater Systems
Режим : 16
Параметр Endianness формата : Big
Идентификатор кодека : A_DTS
Продолжительность : 1 ч. 41 м.
Вид битрейта : Постоянный
Битрейт : 1510 Кбит/сек
Каналы : 6 каналов
Расположение каналов : Front: L C R, Side: L R, LFE
Частота : 48,0 КГц
Частота кадров : 93,750 кадра/сек (512 spf)
Битовая глубина : 24 бит
Метод сжатия : С потерями
Размер потока : 1,07 Гбайт (10%)
Заголовок : Одноголосый закаровый, А.Гаврилов
Язык : Russian
Default : Нет
Forced : Нет

Аудио #11
Идентификатор : 12
Формат : DTS
Формат/Информация : Digital Theater Systems
Режим : 16
Параметр Endianness формата : Big
Идентификатор кодека : A_DTS
Продолжительность : 1 ч. 41 м.
Вид битрейта : Постоянный
Битрейт : 1509 Кбит/сек
Каналы : 6 каналов
Расположение каналов : Front: L C R, Side: L R, LFE
Частота : 48,0 КГц
Частота кадров : 93,750 кадра/сек (512 spf)
Битовая глубина : 16 бит
Метод сжатия : С потерями
Размер потока : 1,07 Гбайт (10%)
Заголовок : Оригинал
Язык : English
Default : Нет
Forced : Нет

Текст #1
Идентификатор : 13
Формат : UTF-8
Идентификатор кодека : S_TEXT/UTF8
Идентификатор кодека/Информация : UTF-8 Plain Text
Продолжительность : 1 ч. 41 м.
Битрейт : 128 бит/сек
ElementCount : 706
Размер потока : 94,9 Кбайт (0%)
Заголовок : Полные, Виктор Д.
Язык : Russian
Default : Нет
Forced : Нет

Текст #2
Идентификатор : 14
Формат : UTF-8
Идентификатор кодека : S_TEXT/UTF8
Идентификатор кодека/Информация : UTF-8 Plain Text
Продолжительность : 1 ч. 37 м.
Битрейт : 98 бит/сек
ElementCount : 1123
Размер потока : 70,0 Кбайт (0%)
Заголовок : Полные, Alex Raynor
Язык : Russian
Default : Нет
Forced : Нет

Текст #3
Идентификатор : 15
Формат : UTF-8
Идентификатор кодека : S_TEXT/UTF8
Идентификатор кодека/Информация : UTF-8 Plain Text
Продолжительность : 1 ч. 37 м.
Битрейт : 88 бит/сек
ElementCount : 1333
Размер потока : 62,8 Кбайт (0%)
Заголовок : Полные, sunny-sko
Язык : Russian
Default : Нет
Forced : Нет

Текст #4
Идентификатор : 16
Формат : UTF-8
Идентификатор кодека : S_TEXT/UTF8
Идентификатор кодека/Информация : UTF-8 Plain Text
Продолжительность : 1 ч. 37 м.
Битрейт : 96 бит/сек
ElementCount : 1330
Размер потока : 68,5 Кбайт (0%)
Заголовок : Полные, Игорь Гиндин
Язык : Russian
Default : Нет
Forced : Нет

Текст #5
Идентификатор : 17
Формат : UTF-8
Идентификатор кодека : S_TEXT/UTF8
Идентификатор кодека/Информация : UTF-8 Plain Text
Продолжительность : 1 ч. 37 м.
Битрейт : 99 бит/сек
ElementCount : 1330
Размер потока : 70,5 Кбайт (0%)
Заголовок : Полные, GЕLULА & СО
Язык : Russian
Default : Нет
Forced : Нет

Текст #6
Идентификатор : 18
Формат : UTF-8
Идентификатор кодека : S_TEXT/UTF8
Идентификатор кодека/Информация : UTF-8 Plain Text
Продолжительность : 1 ч. 37 м.
Битрейт : 113 бит/сек
ElementCount : 1329
Размер потока : 80,7 Кбайт (0%)
Заголовок : Полные, Лицензия
Язык : Russian
Default : Нет
Forced : Нет

Текст #7
Идентификатор : 19
Формат : UTF-8
Идентификатор кодека : S_TEXT/UTF8
Идентификатор кодека/Информация : UTF-8 Plain Text
Продолжительность : 1 ч. 37 м.
Битрейт : 57 бит/сек
ElementCount : 1325
Размер потока : 41,0 Кбайт (0%)
Заголовок : Полные
Язык : English
Default : Нет
Forced : Нет

Меню
00:00:00.000 : en:Start
00:00:42.626 : en:A New Producer
00:04:22.679 : en:Punxsutawney
00:07:05.967 : en:Groundhog Day
00:10:26.626 : en:Gobbler's Knob 1
00:13:46.826 : en:Storm Warning
00:19:28.042 : en:Groundhog Day 2
00:24:15.162 : en:Gobbler's Knog 2
00:26:08.150 : en:Groundhog Day 3
00:26:49.566 : en:Gobbler's Knob 3
00:29:48.745 : en:Phil Seeks Help
00:36:46.913 : en:Groundhog Day 4
00:38:49.744 : en:No More Worries
00:42:04.605 : en:Phil Meets Nancy
00:48:40.626 : en:Groundhog Day 5
00:50:23.103 : en:Heist
00:51:22.454 : en:Groundhog Day 6
00:53:47.224 : en:Perfect Guy
00:56:23.463 : en:Gobbler Knob ?
01:00:57.737 : enay By Day
01:02:19.194 : en:Phil Kidnpas Phil
01:06:12.427 : en:Convincing Rita
01:09:46.391 : en:Phil's New Image
01:15:26.522 : en:Literature & Music
01:19:02.738 : en:Old Man Saga
01:19:22.216 : en:A Long Winter
01:21:06.653 : en:Guardian Angel
01:28:16.291 : en:Groundhog Dinner
01:31:11.925 : en:Rock-Maninoff
01:35:21.716 : en:Bidding for Phil
01:37:59.624 : en:A Warm Face
x.264 log
Encoding video to: D:\DCF\WazZzuP\Groundhog Day.1993.BDRip.720p.WazZzuP.mkv
x264 Q18.5 1280x696 23.976fps (145392 frames)

x264.exe: --crf 18.5 --preset medium --tune grain --ref 9 --merange 48 --bframes 9 --direct auto --b-adapt 2 --trellis 2 --no-fast-pskip --partitions all --subme 11 --me umh --no-mbtree --colormatrix bt709 --sar 778:775 --output "D:\DCF\WazZzuP\Groundhog Day.1993.BDRip.720p.WazZzuP.mkv" "D:\Temp\0091.avs"

avs [info]: 1280x696p 778:775 @ 24000/1001 fps (cfr)
x264 [info]: using SAR=778/775
x264 [info]: using cpu capabilities: MMX2 SSE2Fast SSSE3 SSE4.1 Cache64
x264 [info]: profile High, level 4.0
x264 [info]: cabac=1 ref=9 deblock=1:-2:-2 analyse=0x3:0x133 me=umh subme=11 psy=1 fade_compensate=0.00 psy_rd=1.00:0.25 mixed_ref=1 me_range=48 chroma_me=1 trellis=2 8x8dct=1 cqm=0 deadzone=6,6 fast_pskip=0 chroma_qp_offset=-4 threads=3 lookahead_threads=1 sliced_threads=0 nr=0 decimate=0 interlaced=0 bluray_compat=0 constrained_intra=0 bframes=9 b_pyramid=2 b_adapt=2 b_bias=0 direct=3 weightb=1 open_gop=0 weightp=2 keyint=250 keyint_min=23 scenecut=40 intra_refresh=0 rc=crf mbtree=0 crf=18.5000 qcomp=0.80 qpmin=0 qpmax=69 qpstep=4 ip_ratio=1.10 pb_ratio=1.10 aq=1:0.50
x264 [info]: frame I:940 Avg QP:18.51 size:125561
x264 [info]: frame P:27112 Avg QP:19.00 size: 66028
x264 [info]: frame B:117340 Avg QP:19.41 size: 33223
x264 [info]: consecutive B-frames: 0.9% 1.0% 2.3% 18.2% 16.2% 37.1% 9.5% 12.3% 1.8% 0.6%
x264 [info]: mb I I16..4: 8.9% 73.8% 17.4%
x264 [info]: mb P I16..4: 1.1% 13.2% 1.8% P16..4: 25.9% 35.2% 16.0% 3.1% 0.3% skip: 3.5%
x264 [info]: mb B I16..4: 0.1% 1.9% 0.2% B16..8: 33.9% 25.4% 6.2% direct:12.4% skip:19.8% L0:40.0% L1:38.5% BI:21.4%
x264 [info]: 8x8 transform intra:83.2% inter:40.7%
x264 [info]: direct mvs spatial:100.0% temporal:0.0%
x264 [info]: coded y,uvDC,uvAC intra: 96.8% 94.5% 85.9% inter: 50.6% 41.3% 18.7%
x264 [info]: i16 v,h,dc,p: 8% 5% 23% 65%
x264 [info]: i8 v,h,dc,ddl,ddr,vr,hd,vl,hu: 12% 8% 11% 9% 12% 12% 12% 11% 13%
x264 [info]: i4 v,h,dc,ddl,ddr,vr,hd,vl,hu: 14% 7% 5% 9% 15% 14% 13% 11% 12%
x264 [info]: i8c dc,h,v,p: 51% 16% 16% 16%
x264 [info]: Weighted P-Frames: Y:7.3% UV:4.8%
x264 [info]: ref P L0: 39.8% 11.5% 20.6% 6.6% 6.9% 4.3% 4.9% 2.3% 2.9% 0.1% 0.0%
x264 [info]: ref B L0: 77.0% 10.6% 4.8% 2.7% 1.9% 1.7% 1.0% 0.4%
x264 [info]: ref B L1: 95.7% 4.3%
x264 [info]: kb/s:7660.33
Source vs encode[JP] vs ESiR[US]





Цитата:
Энкод c японского трансфера. В отличии от амекриканца имеет более корректные цвета, не такую сильную зернистость. В интернетах пишут, что он уступает в детализации я так не считаю. Отличия можно посмотреть выше в описании и по этой ссылке. Рип отличается бОльшим разрешением в сравнении с рипом ESiR. Для сохранения соотношения сторон была изменена геометрия пикселя (--sar 778:775, в данный момент ошибка аспектов составляет 0.00247188254%). Оригинальная дорожка обработке не подвергалась (представляет из себя ядро одноименной lossless дороги), тайминги глав с исходного Blu-Ray, названия http://chapterdb.org/browse/7679. Гаврилов с этой раздачи. Все остальные звуковые дорожки и субтитры с 1080p раздачи Skazhutin'a на клубе. Всем чей материал использован в данной раздаче спасибо.
Ссылки для скачивания:

Торрент: День Сурка / Groundhog Day (1993) BDRip 720p

Последний раз редактировалось DCF24; 01.05.2017 в 09:17. Причина: Небольшие правки.
DCF24 вне форума   Ответить с цитированием
6 пользователя(ей) сказали cпасибо:
alisicyn (30.04.2017), Elheym (30.04.2017), sklif1979 (30.04.2017), SKYZ (01.05.2017), sociolog_melvas (30.04.2017), yaroslaigor (30.04.2017)
Ответ

Опции темы
Опции просмотра

Ваши права в разделе
Вы не можете создавать новые темы
Вы не можете отвечать в темах
Вы не можете прикреплять вложения
Вы не можете редактировать свои сообщения

BB коды Вкл.
Смайлы Вкл.
[IMG] код Вкл.
HTML код Выкл.



Текущее время: 03:22. Часовой пояс GMT +3.

Для правообладателей: Форум не предоставляет электронные версии произведений, а содержит ссылки на сторонние ресурсы. Все права на произведения принадлежат правообладателям. Если вы являетесь правообладателем произведения и не желаете чтобы ссылка на него находилась в нашем каталоге, свяжитесь с нами и мы незамедлительно удалим её. Публикация материалов сайта возможна только с разрешения администрации.


Помощь ресурсу
Copyright © 2009 — 2014 R.G. HQCLUB All Rights Reserved.
Powered by vBulletin® Version 3.8.7
Copyright ©2000 - 2017, vBulletin Solutions, Inc. Перевод: zCarot

Яндекс цитирования
Время генерации страницы 0.26529 секунды с 15 запросами