HQCLUB - Форум любителей кино

Загрузить изображение

Вернуться   HQCLUB - Форум любителей кино > Релизы AVC (h264) > Фильмы 1990-1999 г.г. [AVC]

Фильмы 1990-1999 г.г. [AVC] Зарубежные фильмы 1990-1999 г.г.

Ответ
 
Опции темы Опции просмотра
Старый 16.10.2015, 03:56   #1
.
 
Аватар для xAlhimx
 
Регистрация: 24.03.2014
Адрес: Владивосток
Возраст: 29
Пол: Мужчина
Сообщений: 73
Сказал(а) спасибо: 121
Поблагодарили 431 раз(а) в 77 сообщениях
По умолчанию Инферно / Inferno (1999) BDRip 720p

Инферно / Inferno (1999) BDRip 720p
от HQCLUB




Информация о фильме:
Название: Инферно
Оригинальное название: Inferno
Год выхода: 1999
Жанр: боевик, драма, мелодрама
Режиссер: Джон Г. Эвилдсен / John G. Avildsen
В ролях: Жан-Клод Ван Дамм, Пэт Морита, Дэнни Трехо, Гэбриэлль Фицпатрик, Ларри Дрэйк, Винсент Скьявелли, Дэвид ’Шарк’ Фралик, Сайлас Уэйр Митчелл, Джонатан Эвилдсен, Джейми Прессли.

О фильме:
Эдди Ломакс - одинокий воин, утративший веру в себя. Поиски старого друга - одинокого индейца-шамана - приводят его в разрушенный город с адским названием Инферно, где у Эдди много врагов. Полная луна и зов койота помогут ему обрести былую силу и осуществить благородную цель: защитить местных жителей от жестоких банд байкеров и контрабандистов.



Релиз от -
Автор рипа: -MAJESTiC-

Выпущено: Davis-Films, Lomax Productions, PM Entertainment Group Inc.
Продолжительность: 01:34:57
Перевод: Профессиональный (многоголосый закадровый) РТР / ТВ3, Профессиональный (двухголосый закадровый) А.Градов и И.Маликова, Авторский (одноголосый закадровый) Ю.Сербин, Авторский (одноголосый закадровый) С.Визгунов, Авторский (одноголосый закадровый) Ю.Живов
Оригинальная аудиодорожка: Английская
Субтитры: Английские (полные) (*.srt, отключаемые)

Файл:
Формат: MKV
Качество: BDRip 720p (источник: rutracker.org / Inferno.1999.1080p.BD-Remux.GER.AVC.DTS.HD.MA 2.0 | thx: Diablo)
Видео: 1280x722 at 24.000 fps, x264@L4.1, crf, ~7500 kbps avg
Аудио#1: 48.0 kHz, AC3, 2/0 (L,R) ch, ~192.00 kbps avg | MVO - РТР / ТВ3
Аудио#2: 48.0 kHz, AC3, 2/0 (L,R) ch, ~192.00 kbps avg | DVO - A.Gradov and I.Malikova
Аудио#3: 48.0 kHz, AC3, 2/0 (L,R) ch, ~192.00 kbps avg | AVO - Y.Serbin
Аудио#4: 48.0 kHz, AC3, 2/0 (L,R) ch, ~192.00 kbps avg | AVO - S.Vizgunov
Аудио#5: 44.1 kHz, AAC, 2/0 (L,R) ch, ~192.00 kbps avg | AVO - Y.Zhivov
Аудио#6: 48.0 kHz, DTS, 2/0 (L,R) ch, ~1509.00 kbps avg | ENG
Размер: 6.77 Gb
Скачать: Сэмпл


MI

Уникальный идентификатор : 236118625202806039908744901807053828060 (0xB1A2CB06AC23DBC69305C114090D6FDC)
Полное имя : Inferno.1999.720p.BluRay.GER.х264.5хRus.Eng.mkv
Формат : Matroska
Версия формата : Version 4 / Version 2
Размер файла : 6,77 Гбайт
Продолжительность : 1 ч. 34 м.
Общий поток : 10,2 Мбит/сек
Дата кодирования : UTC 2015-09-16 05:51:08
Программа кодирования : mkvmerge v6.1.0 ('Old Devil') built on Mar 4 2013 09:10:42
Библиотека кодирования : libebml v1.3.0 + libmatroska v1.4.0
Attachment : Yes

Видео
Идентификатор : 1
Формат : AVC
Формат/Информация : Advanced Video Codec
Профиль формата : High@L4.1
Параметр CABAC формата : Да
Параметр ReFrames формата : 7 кадров
Идентификатор кодека : V_MPEG4/ISO/AVC
Продолжительность : 1 ч. 34 м.
Ширина : 1280 пикселей
Высота : 722 пикселя
Соотношение сторон : 16:9
Режим частоты кадров : Постоянный
Частота кадров : 24,000 кадра/сек
Цветовое пространство : YUV
Субдискретизация насыщенности : 4:2:0
Битовая глубина : 8 бит
Тип развёртки : Прогрессивная
Заголовок : Инферно / Inferno 1999 BluRay 720р
Библиотека кодирования : x264 core 148 r2597 e86f3a1
Настройки программы : cabac=1 / ref=7 / deblock=1:-3:-3 / analyse=0x3:0x113 / me=umh / subme=10 / psy=1 / psy_rd=1.05:0.00 / mixed_ref=1 / me_range=64 / chroma_me=1 / trellis=2 / 8x8dct=1 / cqm=0 / deadzone=21,11 / fast_pskip=0 / chroma_qp_offset=-2 / threads=6 / lookahead_threads=1 / sliced_threads=0 / nr=0 / decimate=1 / interlaced=0 / bluray_compat=0 / constrained_intra=0 / bframes=13 / b_pyramid=2 / b_adapt=2 / b_bias=0 / direct=3 / weightb=1 / open_gop=0 / weightp=2 / keyint=230 / keyint_min=23 / scenecut=40 / intra_refresh=0 / rc_lookahead=60 / rc=crf / mbtree=0 / crf=18.9 / qcomp=0.65 / qpmin=0 / qpmax=69 / qpstep=4 / vbv_maxrate=40000 / vbv_bufsize=30000 / crf_max=0.0 / nal_hrd=none / filler=0 / ip_ratio=1.15 / pb_ratio=1.10 / aq=2:0.90 / zones=1961,2082,b=1.1/5248,5948,b=1.3/6655,7197,b=1.2/8718,8805,b=1.15/8942,9147,b=1.15/10793,11203,b=1.12/29393,30043,b=1.15/67019,67083,b=1.1/91662,91741,b=1.1/126945,127463,b=1.15
Язык : English
Default : Нет
Forced : Нет

Аудио #1
Идентификатор : 2
Формат : AC-3
Формат/Информация : Audio Coding 3
Расширение режима : CM (complete main)
Параметр Endianness формата : Big
Идентификатор кодека : A_AC3
Продолжительность : 1 ч. 34 м.
Вид битрейта : Постоянный
Битрейт : 192 Кбит/сек
Каналы : 2 канала
Расположение каналов : Front: L R
Частота : 48,0 КГц
Битовая глубина : 16 бит
Метод сжатия : С потерями
Размер потока : 130 Мбайт (2%)
Заголовок : AC3 2.0 @ 192 kbps - MVO, РТР / ТВ3
Язык : Russian
Default : Да
Forced : Нет

Аудио #2
Идентификатор : 3
Формат : AC-3
Формат/Информация : Audio Coding 3
Расширение режима : CM (complete main)
Параметр Endianness формата : Big
Идентификатор кодека : A_AC3
Продолжительность : 1 ч. 34 м.
Вид битрейта : Постоянный
Битрейт : 192 Кбит/сек
Каналы : 2 канала
Расположение каналов : Front: L R
Частота : 48,0 КГц
Битовая глубина : 16 бит
Метод сжатия : С потерями
Размер потока : 130 Мбайт (2%)
Заголовок : AC3 2.0 @ 192 kbps - DVO, А.Градов и И.Маликова
Язык : Russian
Default : Нет
Forced : Нет

Аудио #3
Идентификатор : 4
Формат : AC-3
Формат/Информация : Audio Coding 3
Расширение режима : CM (complete main)
Параметр Endianness формата : Big
Идентификатор кодека : A_AC3
Продолжительность : 1 ч. 34 м.
Вид битрейта : Постоянный
Битрейт : 192 Кбит/сек
Каналы : 2 канала
Расположение каналов : Front: L R
Частота : 48,0 КГц
Битовая глубина : 16 бит
Метод сжатия : С потерями
Размер потока : 130 Мбайт (2%)
Заголовок : AC3 2.0 @ 192 kbps - AVO, Ю.Сербин
Язык : Russian
Default : Нет
Forced : Нет

Аудио #4
Идентификатор : 5
Формат : AC-3
Формат/Информация : Audio Coding 3
Расширение режима : CM (complete main)
Параметр Endianness формата : Big
Идентификатор кодека : A_AC3
Продолжительность : 1 ч. 34 м.
Вид битрейта : Постоянный
Битрейт : 192 Кбит/сек
Каналы : 2 канала
Расположение каналов : Front: L R
Частота : 48,0 КГц
Битовая глубина : 16 бит
Метод сжатия : С потерями
Размер потока : 130 Мбайт (2%)
Заголовок : AC3 2.0 @ 192 kbps - AVO, С.Визгунов
Язык : Russian
Default : Нет
Forced : Нет

Аудио #5
Идентификатор : 6
Формат : AAC
Формат/Информация : Advanced Audio Codec
Профиль формата : LC
Идентификатор кодека : A_AAC
Продолжительность : 1 ч. 34 м.
Каналы : 2 канала
Расположение каналов : Front: L R
Частота : 44,1 КГц
Метод сжатия : С потерями
Заголовок : AАC 2.0 @ 192 kbps - AVO, Ю.Живов
Язык : Russian
Default : Нет
Forced : Нет

Аудио #6
Идентификатор : 7
Формат : DTS
Формат/Информация : Digital Theater Systems
Режим : 16
Параметр Endianness формата : Big
Идентификатор кодека : A_DTS
Продолжительность : 1 ч. 34 м.
Вид битрейта : Постоянный
Битрейт : 1509 Кбит/сек
Каналы : 2 канала
Расположение каналов : Front: L R
Частота : 48,0 КГц
Битовая глубина : 24 бит
Метод сжатия : С потерями
Размер потока : 1,00 Гбайт (15%)
Заголовок : DTS 2.0 @ 1509 kbps - Original
Язык : Russian
Default : Нет
Forced : Нет

Текст
Идентификатор : 8
Формат : UTF-8
Идентификатор кодека : S_TEXT/UTF8
Идентификатор кодека/Информация : UTF-8 Plain Text
Заголовок : Full
Язык : English
Default : Нет
Forced : Нет

log x264

x264 [info]: frame I:899 Avg QP:18.64 size: 74244
x264 [info]: frame P:25230 Avg QP:18.83 size: 53388
x264 [info]: frame B:110620 Avg QP:19.58 size: 37441

x264 [info]: consecutive B-frames: 1.1% 0.6% 2.1% 13.8% 17.8% 44.0% 10.6% 5.3% 1.8% 1.3% 0.6% 0.3% 0.3% 0.3%

x264 [info]: ref P L0: 38.4% 9.7% 20.8% 10.3% 8.3% 6.5% 5.7% 0.4% 0.0%
x264 [info]: ref B L0: 64.6% 16.7% 9.9% 5.4% 2.5% 0.9%
x264 [info]: ref B L1: 89.8% 10.2%
x264 [info]: kb/s:7800.08
encoded 136749 frames, 7800.08 kb/s

Source vs Encode

------------------Source------------------vs---------------Encode-------------------










Цитата:
За качественный перевод РТР и синхронизацию большое спасибо Diablo. Есть вставки Двухголосого перевода "А.Градов и И.Маликова" на пропущенные места, смотрите под спойлером.
Вставки

00:06:42-00:06:59
00:08:43-00:09:06
00:10:26-00:10:57
00:12:47-00:13:11
00:16:35-00:16:54
00:18:02-00:19:07
00:23:09-00:23:20
Ссылки для скачивания:

Торрент: Инферно / Inferno (1999) BDRip 720p
__________________

Последний раз редактировалось xAlhimx; 16.10.2015 в 10:23.
xAlhimx вне форума   Ответить с цитированием
11 пользователя(ей) сказали cпасибо:
alexgor111 (17.10.2015), Elheym (16.10.2015), Gellard (14.11.2015), Kingsize87 (16.10.2015), MOSFET (16.10.2015), Rensler (16.10.2015), Rocky (17.10.2015), sociolog_melvas (16.10.2015), The next (16.10.2015), vitek (19.10.2015), yaroslaigor (16.10.2015)
Старый 16.10.2015, 04:13   #2
.
 
Аватар для xAlhimx
 
Регистрация: 24.03.2014
Адрес: Владивосток
Возраст: 29
Пол: Мужчина
Сообщений: 73
Сказал(а) спасибо: 121
Поблагодарили 431 раз(а) в 77 сообщениях
По умолчанию

Приятного просмотра!
__________________
xAlhimx вне форума   Ответить с цитированием
11 пользователя(ей) сказали cпасибо:
alexgor111 (17.10.2015), Elheym (16.10.2015), Gellard (14.11.2015), Kingsize87 (16.10.2015), MOSFET (16.10.2015), Rensler (16.10.2015), Rocky (17.10.2015), sociolog_melvas (16.10.2015), The next (16.10.2015), vitek (19.10.2015), yaroslaigor (16.10.2015)
Старый 06.03.2016, 07:53   #3
Посетитель
 
Аватар для VovkaBBfan
 
Регистрация: 31.05.2011
Адрес: Омск
Пол: Мужчина
Сообщений: 92
Сказал(а) спасибо: 135
Поблагодарили 450 раз(а) в 94 сообщениях
Отправить сообщение для VovkaBBfan с помощью ICQ
По умолчанию

Всем Привет! Помогите скачать плиз!
__________________
Джеки, Джет и Слай!
VovkaBBfan вне форума   Ответить с цитированием
4 пользователя(ей) сказали cпасибо:
Elheym (06.03.2016), Gellard (12.03.2016), sklif1979 (06.03.2016), sociolog_melvas (06.03.2016)
Ответ

Опции темы
Опции просмотра

Ваши права в разделе
Вы не можете создавать новые темы
Вы не можете отвечать в темах
Вы не можете прикреплять вложения
Вы не можете редактировать свои сообщения

BB коды Вкл.
Смайлы Вкл.
[IMG] код Вкл.
HTML код Выкл.



Текущее время: 03:26. Часовой пояс GMT +3.

Для правообладателей: Форум не предоставляет электронные версии произведений, а содержит ссылки на сторонние ресурсы. Все права на произведения принадлежат правообладателям. Если вы являетесь правообладателем произведения и не желаете чтобы ссылка на него находилась в нашем каталоге, свяжитесь с нами и мы незамедлительно удалим её. Публикация материалов сайта возможна только с разрешения администрации.


Помощь ресурсу
Copyright © 2009 — 2014 R.G. HQCLUB All Rights Reserved.
Powered by vBulletin® Version 3.8.7
Copyright ©2000 - 2017, vBulletin Solutions, Inc. Перевод: zCarot

Яндекс цитирования
Время генерации страницы 0.20990 секунды с 16 запросами