HQCLUB - Форум любителей кино

Загрузить изображение

Вернуться   HQCLUB - Форум любителей кино > Релизы AVC (h264) > Документалистика [AVC]

Документалистика [AVC] Отечественные и зарубежные документальные фильмы.

Ответ
 
Опции темы Опции просмотра
Старый 15.09.2011, 23:19   #1
Завсегдатай
 
Аватар для ГраНат27
 
Регистрация: 13.03.2011
Адрес: Балаково
Пол: Мужчина
Сообщений: 245
Сказал(а) спасибо: 267
Поблагодарили 1,752 раз(а) в 324 сообщениях
Отправить сообщение для ГраНат27 с помощью ICQ
По умолчанию Легенды неба / Legends of Flight (2010) BDRip-AVC

Легенды неба / Legends of Flight (2010) BDRip-AVC
от
HQCLUB



Информация о фильме:
Название: Легенды неба
Оригинальное название: Legends of Flight
Год выхода: 2010
Жанр: документальный
Режиссер: Стивен Лоу / Stephen Low

О фильме: За более чем трёхсотлетнюю историю авиации по настоящему радикальные дизайны летательных аппаратов возникали лишь раз в поколение , и с начала 1970-х в небесах не появлялось практически ничего нового... так было до сих пор. Теперь на сцене пассажирских авиалиний возвышаются Boeing 787 Dreamliner и Airbus A380.
Узрите, как век проб и ошибок для авиации, а так же наиболее конструктивные варианты самолётов 20-го века повлияли на дизайн Dreamliner. Вы испытаете трепет при виде полёта нескольких из этих легендарных самолётов в одних из самых захватывающих эпизодах, которые вы когда либо видели. Вы увидите первый публичный полет массивного, но очень эффективного Airbus A380 на Парижской авиационной выставке 2007 года, а так же первый полёт менее крупного, но еще более эффективного Boeing 787 - самого первого авиалайнера из углеродного волокна, который увидел свой первый полёт в 2009 году. Данный уникальный кинематографический опыт покажет, как 787 может повлиять на следующие 100 лет авиационного дизайна.

IMDB: 5.5 (59 votes)
КиноПоиск: 7.182 (26 votes)

Релиз от -
Автор рипа: ГраНат27

Выпущено: США
Продолжительность: 00:44:30
Перевод: Професиональный (одноголосый закадровый) "Омикрон" + Оригинальная звуковая дорожка
Субтитры: Нет

Файл:
Формат: mkv
Качество: BDRip-AVC (источник: HDClub / Blu-Ray Disc / 1080p)
Видео: 1024x576 (1.78:1), 23.976 fps, MPEG-4 AVC, crf, ~3765 kbps
Аудио #1: 48 kHz, AC3, 3/2 (L,C,R,l,r), ~448.00 kbps avg (RUS)
Аудио #2: 48 kHz, AC3, 3/2 (L,C,R,l,r), ~448.00 kbps avg (ENG)
Размер: 1.47 Gb
Скачать: Сэмпл



Ссылки для скачивания:

Торрент: Легенды неба / Legends of Flight (2010) BDRip-AVC
__________________
ГраНат27 вне форума   Ответить с цитированием
10 пользователя(ей) сказали cпасибо:
AngelOfTrue (16.09.2011), Dream45 (16.09.2011), Gellard (17.09.2011), House M.D. (16.09.2011), KalliostroV (15.09.2011), MOSFET (15.09.2011), MYSTERYS (15.09.2011), shkulev aleksandr (25.09.2011), TyMaH74 (16.09.2011), vinalord (16.09.2011)
Старый 15.09.2011, 23:22   #2
Завсегдатай
 
Аватар для ГраНат27
 
Регистрация: 13.03.2011
Адрес: Балаково
Пол: Мужчина
Сообщений: 245
Сказал(а) спасибо: 267
Поблагодарили 1,752 раз(а) в 324 сообщениях
Отправить сообщение для ГраНат27 с помощью ICQ
По умолчанию

MI
Полное имя : D:\Рип легенды\Готовый\Legendy.neba.2010.DUAL.BDRip-AVC.AC3.-HQCLUB.mkv
Формат : Matroska
Размер файла : 1,48 Гбайт
Продолжительность : 44 м.
Общий поток : 4756 Кбит/сек
Дата кодирования : UTC 2011-09-15 18:12:39
Программа кодирования : mkvmerge v4.9.1 ('Ich will') сборка от Jul 11 2011 23:53:15
Библиотека кодирования : libebml v1.2.1 + libmatroska v1.1.1

Видео
Идентификатор : 1
Формат : AVC
Формат/Информация : Advanced Video Codec
Профиль формата : High@L4.1
Параметр CABAC формата : Да
Параметр ReFrames формата : 4 кадры
Идентификатор кодека : V_MPEG4/ISO/AVC
Продолжительность : 44 м.
Битрейт : 3765 Кбит/сек
Ширина : 1024 пикс.
Высота : 576 пикс.
Соотношение сторон : 16:9
Частота кадров : 23,976 кадр/сек
Цветовое пространство : YUV
Подвыборка цветности : 4:2:0
Битовая глубина : 8 бит
Тип развёртки : Прогрессивная
Бит/(Пиксели*Кадры) : 0.266
Размер потока : 1,17 Гбайт (79%)
Библиотека кодирования : x264 core 115 r1995 c1e60b9
Настройки программы : cabac=1 / ref=4 / deblock=1:-3:-3 / analyse=0x3:0x113 / me=umh / subme=10 / psy=1 / psy_rd=1.00:0.00 / mixed_ref=1 / me_range=32 / chroma_me=1 / trellis=2 / 8x8dct=1 / cqm=0 / deadzone=21,11 / fast_pskip=0 / chroma_qp_offset=-2 / threads=3 / sliced_threads=0 / nr=0 / decimate=1 / interlaced=0 / bluray_compat=0 / constrained_intra=0 / bframes=9 / b_pyramid=2 / b_adapt=2 / b_bias=0 / direct=3 / weightb=1 / open_gop=0 / weightp=2 / keyint=250 / keyint_min=23 / scenecut=40 / intra_refresh=0 / rc_lookahead=40 / rc=crf / mbtree=0 / crf=16.5 / qcomp=0.60 / qpmin=0 / qpmax=69 / qpstep=4 / vbv_maxrate=50000 / vbv_bufsize=62500 / crf_max=0.0 / nal_hrd=none / ip_ratio=1.40 / pb_ratio=1.30 / aq=1:0.80
Язык : English

Аудио #1
Идентификатор : 2
Формат : AC-3
Формат/Информация : Audio Coding 3
Расширение режима : CM (complete main)
Идентификатор кодека : A_AC3
Продолжительность : 44 м.
Вид битрейта : Постоянный
Битрейт : 448 Кбит/сек
Канал(ы) : 6 канала(ов)
Расположение каналов : Front: L C R, Side: L R, LFE
Частота : 48,0 КГц
Битовая глубина : 16 бит
Метод сжатия : С потерями
Размер потока : 143 Мбайт (9%)
Заголовок : Одноголосый
Язык : Russian

Аудио #2
Идентификатор : 3
Формат : AC-3
Формат/Информация : Audio Coding 3
Расширение режима : CM (complete main)
Идентификатор кодека : A_AC3
Продолжительность : 44 м.
Вид битрейта : Постоянный
Битрейт : 448 Кбит/сек
Канал(ы) : 6 канала(ов)
Расположение каналов : Front: L C R, Side: L R, LFE
Частота : 48,0 КГц
Битовая глубина : 16 бит
Метод сжатия : С потерями
Размер потока : 143 Мбайт (9%)
Заголовок : Оригинал
Язык : English

Меню
00:00:00.000 : :Chapter 01
00:01:13.865 : :Chapter 02
00:02:57.760 : :Chapter 03
00:04:35.733 : :Chapter 04
00:05:49.349 : :Chapter 05
00:08:00.354 : :Chapter 06
00:09:54.885 : :Chapter 07
00:12:02.179 : :Chapter 08
00:14:21.944 : :Chapter 09
00:17:44.063 : :Chapter 10
00:20:55.879 : :Chapter 11
00:22:37.773 : :Chapter 12
00:24:16.538 : :Chapter 13
00:28:38.758 : :Chapter 14
00:30:03.218 : :Chapter 15
00:32:48.800 : :Chapter 16
00:35:08.105 : :Chapter 17
00:40:23.421 : :Chapter 18
00:44:29.958 : :Chapter 19

Log

frame I:333 Avg QP:15.82 size:103148
frame P:14939 Avg QP:17.83 size: 40256
frame B:48749 Avg QP:20.69 size: 13374

consecutive B-frames: 2.3% 3.8% 7.3% 33.4% 17.4% 21.6% 5.8% 2.7% 2.9% 2.7%

ref P L0: 54.5% 17.0% 19.3% 8.1% 1.0% 0.0%
ref B L0: 87.9% 9.9% 2.3%
ref B L1: 92.9% 7.1%

Поехали. Приятного просмотра
__________________
ГраНат27 вне форума   Ответить с цитированием
9 пользователя(ей) сказали cпасибо:
Drago (16.09.2011), Dream45 (16.09.2011), Gellard (17.09.2011), House M.D. (16.09.2011), KalliostroV (15.09.2011), MOSFET (15.09.2011), MYSTERYS (15.09.2011), shkulev aleksandr (25.09.2011), TyMaH74 (16.09.2011)
Старый 16.09.2011, 00:05   #3
Патриарх
 
Аватар для House M.D.
 
Регистрация: 24.07.2010
Адрес: Unknown
Пол: Мужчина
Сообщений: 1,242
Сказал(а) спасибо: 9,186
Поблагодарили 4,412 раз(а) в 1,289 сообщениях
По умолчанию

ГраНат27, Благодарю за релиз.
House M.D. вне форума   Ответить с цитированием
3 пользователя(ей) сказали cпасибо:
Drago (16.09.2011), Dream45 (16.09.2011), Gellard (17.09.2011)
Старый 16.09.2011, 04:12   #4
Посетитель
 
Аватар для Drago
 
Регистрация: 16.06.2011
Пол: Мужчина
Сообщений: 72
Сказал(а) спасибо: 2,849
Поблагодарили 392 раз(а) в 74 сообщениях
По умолчанию

Спасибо надо посмотреть.
Drago вне форума   Ответить с цитированием
2 пользователя(ей) сказали cпасибо:
Dream45 (16.09.2011), Gellard (17.09.2011)
Ответ

Опции темы
Опции просмотра

Ваши права в разделе
Вы не можете создавать новые темы
Вы не можете отвечать в темах
Вы не можете прикреплять вложения
Вы не можете редактировать свои сообщения

BB коды Вкл.
Смайлы Вкл.
[IMG] код Вкл.
HTML код Выкл.



Текущее время: 11:38. Часовой пояс GMT +3.

Для правообладателей: Форум не предоставляет электронные версии произведений, а содержит ссылки на сторонние ресурсы. Все права на произведения принадлежат правообладателям. Если вы являетесь правообладателем произведения и не желаете чтобы ссылка на него находилась в нашем каталоге, свяжитесь с нами и мы незамедлительно удалим её. Публикация материалов сайта возможна только с разрешения администрации.


Помощь ресурсу
Copyright © 2009 — 2014 R.G. HQCLUB All Rights Reserved.
Powered by vBulletin® Version 3.8.7
Copyright ©2000 - 2018, vBulletin Solutions, Inc. Перевод: zCarot

Яндекс цитирования
Время генерации страницы 0.15521 секунды с 14 запросами