HQCLUB - Форум любителей кино

Загрузить изображение

Вернуться   HQCLUB - Форум любителей кино > Релизы AVC (h264) > Документалистика [AVC]

Документалистика [AVC] Отечественные и зарубежные документальные фильмы.

Ответ
 
Опции темы Опции просмотра
Старый 14.09.2011, 08:21   #1
Завсегдатай
 
Аватар для ГраНат27
 
Регистрация: 13.03.2011
Адрес: Балаково
Пол: Мужчина
Сообщений: 245
Сказал(а) спасибо: 267
Поблагодарили 1,752 раз(а) в 324 сообщениях
Отправить сообщение для ГраНат27 с помощью ICQ
По умолчанию Динозавры / Dinosaurs: Giants of Patagonia (2007) BDRip-AVC

Динозавры / Dinosaurs: Giants of Patagonia (2007) BDRip-AVC
от
HQCLUB



Информация о фильме:
Название: Динозавры
Оригинальное название: Dinosaurs: Giants of Patagonia
Год выхода: 2007
Жанр: документальный
Режиссер: Марк Фафард
В ролях: Дональд Сазерленд, Rodolfo Coria

О фильме: Если бы не серия катаклизмов, начатая падением метеорита, наша планета до сих пор могла бы быть населена динозаврами.

Вслед за профессором Рудольфо Гориа, всемирно известным Аргентинским палеонтологом, зритель посетит места его важнейших открытий в Патагонии и вернется назад во времени, чтобы увидеть рождение этих невероятных созданий. Патагония подарила нам самое большое живое существо, когда-либо бродившее по Земле — огромного травоядного Аргентинозавра, а также и его врага Гигантозавра, двуногого хищника, который легко поспорит со знаменитым Т-Рексом.

IMDB: 5.9 (140 votes)
КиноПоиск: 6.824 (46 votes)

Релиз от -
Автор рипа: ГраНат27

Выпущено: Канада
Продолжительность: 00:40:34
Перевод: Профессиональный (одноголосый закадровый) + Оригинальная звуковая дорожка
Субтитры: Нет

Файл:
Формат: mkv
Качество: BDRip-AVC (источник: HDClub / Blu-Ray Disc / 1080p)
Видео: 1024x576 (1.78:1), 23.976 fps, MPEG-4 AVC, crf, ~3295 kbps
Аудио #1: 48 kHz, AC3, 2/0 (L,R) ch, ~192.00 kbps avg (RUS)
Аудио #2: 48 kHz, AC3, 3/2 (L,C,R,l,r), ~448.00 kbps avg (ENG)
Размер: 1.13 Gb
Скачать: Сэмпл



Ссылки для скачивания:

Торрент: Динозавры / Dinosaurs: Giants of Patagonia (2007) BDRip-AVC
__________________
ГраНат27 вне форума   Ответить с цитированием
17 пользователя(ей) сказали cпасибо:
alexgor111 (14.09.2011), AngelOfTrue (14.09.2011), Drago (14.09.2011), Drake (15.09.2011), exter (14.09.2011), Gellard (17.09.2011), House M.D. (14.09.2011), KalliostroV (14.09.2011), MOSFET (14.09.2011), rastor (14.09.2011), shkulev aleksandr (25.09.2011), Sky™ (14.09.2011), SnakeP (14.09.2011), TyMaH74 (14.09.2011), vinalord (14.09.2011), vital_tvg (14.09.2011), whisky (15.09.2011)
Старый 14.09.2011, 08:24   #2
Завсегдатай
 
Аватар для ГраНат27
 
Регистрация: 13.03.2011
Адрес: Балаково
Пол: Мужчина
Сообщений: 245
Сказал(а) спасибо: 267
Поблагодарили 1,752 раз(а) в 324 сообщениях
Отправить сообщение для ГраНат27 с помощью ICQ
По умолчанию

MI
Полное имя : D:\Рип динозавры\Готовый\Dinozavry.2007.DUAL.BDRip-AVC.AC3.-HQCLUB.mkv
Формат : Matroska
Размер файла : 1,14 Гбайт
Продолжительность : 40 м.
Общий поток : 4015 Кбит/сек
Дата кодирования : UTC 2011-09-14 03:58:52
Программа кодирования : mkvmerge v4.9.1 ('Ich will') сборка от Jul 11 2011 23:53:15
Библиотека кодирования : libebml v1.2.1 + libmatroska v1.1.1

Видео
Идентификатор : 1
Формат : AVC
Формат/Информация : Advanced Video Codec
Профиль формата : High@L4.1
Параметр CABAC формата : Да
Параметр ReFrames формата : 4 кадры
Идентификатор кодека : V_MPEG4/ISO/AVC
Продолжительность : 40 м.
Битрейт : 3295 Кбит/сек
Ширина : 1024 пикс.
Высота : 576 пикс.
Соотношение сторон : 16:9
Частота кадров : 23,976 кадр/сек
Цветовое пространство : YUV
Подвыборка цветности : 4:2:0
Битовая глубина : 8 бит
Тип развёртки : Прогрессивная
Бит/(Пиксели*Кадры) : 0.233
Размер потока : 956 Мбайт (82%)
Библиотека кодирования : x264 core 115 r1995 c1e60b9
Настройки программы : cabac=1 / ref=4 / deblock=1:-3:-3 / analyse=0x3:0x113 / me=esa / subme=10 / psy=1 / psy_rd=1.00:0.00 / mixed_ref=1 / me_range=32 / chroma_me=1 / trellis=2 / 8x8dct=1 / cqm=0 / deadzone=21,11 / fast_pskip=0 / chroma_qp_offset=-2 / threads=3 / sliced_threads=0 / nr=0 / decimate=1 / interlaced=0 / bluray_compat=0 / constrained_intra=0 / bframes=9 / b_pyramid=2 / b_adapt=2 / b_bias=0 / direct=3 / weightb=1 / open_gop=0 / weightp=2 / keyint=250 / keyint_min=23 / scenecut=40 / intra_refresh=0 / rc_lookahead=40 / rc=crf / mbtree=0 / crf=18.0 / qcomp=0.60 / qpmin=0 / qpmax=69 / qpstep=4 / vbv_maxrate=50000 / vbv_bufsize=62500 / crf_max=0.0 / nal_hrd=none / ip_ratio=1.40 / pb_ratio=1.30 / aq=1:0.80
Язык : English

Аудио #1
Идентификатор : 2
Формат : AC-3
Формат/Информация : Audio Coding 3
Расширение режима : CM (complete main)
Идентификатор кодека : A_AC3
Продолжительность : 40 м.
Вид битрейта : Постоянный
Битрейт : 192 Кбит/сек
Канал(ы) : 2 канала(ов)
Расположение каналов : Front: L R
Частота : 48,0 КГц
Битовая глубина : 16 бит
Метод сжатия : С потерями
Размер потока : 55,7 Мбайт (5%)
Заголовок : Одноголосый
Язык : Russian

Аудио #2
Идентификатор : 3
Формат : AC-3
Формат/Информация : Audio Coding 3
Расширение режима : CM (complete main)
Идентификатор кодека : A_AC3
Продолжительность : 40 м.
Вид битрейта : Постоянный
Битрейт : 448 Кбит/сек
Канал(ы) : 6 канала(ов)
Расположение каналов : Front: L C R, Side: L R, LFE
Частота : 48,0 КГц
Битовая глубина : 16 бит
Метод сжатия : С потерями
Размер потока : 130 Мбайт (11%)
Заголовок : Оригинал
Язык : English

Меню
00:00:00.000 : :Chapter 01
00:02:17.137 : :Chapter 02
00:03:12.150 : :Chapter 03
00:06:32.308 : :Chapter 04
00:07:23.443 : :Chapter 05
00:10:43.809 : :Chapter 06
00:14:20.484 : :Chapter 07
00:21:50.350 : :Chapter 08
00:25:35.909 : :Chapter 09
00:28:44.889 : :Chapter 10
00:31:22.046 : :Chapter 11
00:33:10.905 : :Chapter 12
00:35:08.773 : :Chapter 13
00:37:06.349 : :Chapter 14
00:39:05.468 : :Chapter 15
00:40:33.931 : :Chapter 16

Log

frame I:304 Avg QP:18.15 size:160601
frame P:14507 Avg QP:20.04 size: 39796
frame B:43551 Avg QP:22.54 size: 9190

consecutive B-frames: 2.5% 6.4% 11.9% 27.7% 15.8% 27.1% 4.1% 1.9% 1.4% 1.1%

ref P L0: 56.4% 20.0% 15.5% 6.9% 1.1% 0.1%
ref B L0: 88.7% 9.2% 2.1%
ref B L1: 92.2% 7.8%

Поехали. Приятного просмотра
__________________
ГраНат27 вне форума   Ответить с цитированием
11 пользователя(ей) сказали cпасибо:
AngelOfTrue (14.09.2011), Drago (14.09.2011), exter (14.09.2011), Gellard (17.09.2011), House M.D. (14.09.2011), KalliostroV (14.09.2011), MOSFET (14.09.2011), rastor (14.09.2011), shkulev aleksandr (25.09.2011), Sky™ (14.09.2011), TyMaH74 (14.09.2011)
Старый 14.09.2011, 09:24   #3
Атомщик
 
Аватар для Sky™
 
Регистрация: 19.01.2011
Адрес: Балаково
Пол: Мужчина
Сообщений: 2,321
Сказал(а) спасибо: 3,498
Поблагодарили 15,386 раз(а) в 2,997 сообщениях
Отправить сообщение для Sky™ с помощью ICQ
По умолчанию

Всегда завораживали эти ящеры
__________________
Тот, кто молчит, знает в два раза больше, чем тот, кто говорит.

Sky™ вне форума   Ответить с цитированием
6 пользователя(ей) сказали cпасибо:
AngelOfTrue (14.09.2011), Drago (14.09.2011), exter (14.09.2011), Gellard (17.09.2011), House M.D. (14.09.2011), rastor (14.09.2011)
Старый 14.09.2011, 10:55   #4
Патриарх
 
Аватар для House M.D.
 
Регистрация: 24.07.2010
Адрес: Unknown
Пол: Мужчина
Сообщений: 1,242
Сказал(а) спасибо: 9,186
Поблагодарили 4,412 раз(а) в 1,289 сообщениях
По умолчанию

Sky™, Честно говоря меня тоже.
House M.D. вне форума   Ответить с цитированием
5 пользователя(ей) сказали cпасибо:
AngelOfTrue (14.09.2011), Drago (14.09.2011), exter (14.09.2011), Gellard (17.09.2011), rastor (14.09.2011)
Старый 14.09.2011, 11:10   #5
Новичок
 
Регистрация: 10.03.2011
Пол: Мужчина
Сообщений: 32
Сказал(а) спасибо: 328
Поблагодарили 148 раз(а) в 32 сообщениях
По умолчанию

спасибо обожаю все что связано с динозаврами
rastor вне форума   Ответить с цитированием
5 пользователя(ей) сказали cпасибо:
AngelOfTrue (14.09.2011), Drago (14.09.2011), exter (14.09.2011), Gellard (17.09.2011), House M.D. (14.09.2011)
Старый 14.09.2011, 13:02   #6
Атомщик
 
Аватар для Sky™
 
Регистрация: 19.01.2011
Адрес: Балаково
Пол: Мужчина
Сообщений: 2,321
Сказал(а) спасибо: 3,498
Поблагодарили 15,386 раз(а) в 2,997 сообщениях
Отправить сообщение для Sky™ с помощью ICQ
По умолчанию

Если успею, сегодня оформлю ави рип ящеров
__________________
Тот, кто молчит, знает в два раза больше, чем тот, кто говорит.

Sky™ вне форума   Ответить с цитированием
5 пользователя(ей) сказали cпасибо:
AngelOfTrue (14.09.2011), babaev (14.09.2011), exter (14.09.2011), Gellard (17.09.2011), House M.D. (14.09.2011)
Ответ

Опции темы
Опции просмотра

Ваши права в разделе
Вы не можете создавать новые темы
Вы не можете отвечать в темах
Вы не можете прикреплять вложения
Вы не можете редактировать свои сообщения

BB коды Вкл.
Смайлы Вкл.
[IMG] код Вкл.
HTML код Выкл.



Текущее время: 18:22. Часовой пояс GMT +3.

Для правообладателей: Форум не предоставляет электронные версии произведений, а содержит ссылки на сторонние ресурсы. Все права на произведения принадлежат правообладателям. Если вы являетесь правообладателем произведения и не желаете чтобы ссылка на него находилась в нашем каталоге, свяжитесь с нами и мы незамедлительно удалим её. Публикация материалов сайта возможна только с разрешения администрации.


Помощь ресурсу
Copyright © 2009 — 2014 R.G. HQCLUB All Rights Reserved.
Powered by vBulletin® Version 3.8.7
Copyright ©2000 - 2018, vBulletin Solutions, Inc. Перевод: zCarot

Яндекс цитирования
Время генерации страницы 0.23193 секунды с 14 запросами