HQCLUB - Форум любителей кино

Загрузить изображение

Вернуться   HQCLUB - Форум любителей кино > Релизы AVC (h264) > Документалистика [AVC]

Документалистика [AVC] Отечественные и зарубежные документальные фильмы.

Ответ
 
Опции темы Опции просмотра
Старый 03.09.2011, 17:24   #1
Завсегдатай
 
Аватар для ГраНат27
 
Регистрация: 13.03.2011
Адрес: Балаково
Пол: Мужчина
Сообщений: 245
Сказал(а) спасибо: 267
Поблагодарили 1,752 раз(а) в 324 сообщениях
Отправить сообщение для ГраНат27 с помощью ICQ
По умолчанию Букашки! 3D / Bugs! (2003) BDRip-AVC

Букашки! 3D / Bugs! (2003) BDRip-AVC
от
HQCLUB



Информация о фильме:
Название: Букашки! 3D
Оригинальное название: Bugs!
Год выхода: 2003
Жанр: документальный, короткометражка
Режиссер: Майк Сли
В ролях: Джуди Денч

О фильме: Фильм, рассказывающий о жизни насекомых в тропических лесах. Зритель следит за судьбой бабочки и богомола, живущих на одной поляне, с момента их рождения. Не остаются без внимания и другие насекомые, жизнь которых, как выясняется, полна приключений и трудностей...

IMDB: 6.9 (196 votes)
КиноПоиск: 7.417 (56 votes)

Релиз от -
Автор рипа: ГраНат27

Выпущено: Великобритания
Продолжительность: 00:40:03
Перевод: Профессиональный (одноголосый закадровый) + Оригинальная звуковая дорожка
Субтитры: Нет

Файл:
Формат: mkv
Качество: BDRip (источник: Bluebird-hd / Blu-Ray Disc / 1080p)
Видео: 1024x576 (1.78:1), 23.976 fps, MPEG-4 AVC, crf, ~3290 kbps
Аудио #1: 48 kHz, AC3, 3/2 (L,C,R,l,r) + LFE ch, ~384.00 kbps avg (RUS)
Аудио #2: 48 kHz, AC3, 3/2 (L,C,R,l,r) + LFE ch, ~384.00 kbps avg (ENG)
Размер: 1.15 Gb
Скачать: Сэмпл



Ссылки для скачивания:

Торрент: Букашки! 3D / Bugs! (2003) BDRip-AVC
__________________

Последний раз редактировалось ГраНат27; 03.09.2011 в 18:31.
ГраНат27 вне форума   Ответить с цитированием
22 пользователя(ей) сказали cпасибо:
AH4 (03.09.2011), alexgor111 (04.09.2011), AngelOfTrue (03.09.2011), DenisNN (03.09.2011), Dobrush (17.09.2011), Drago (03.09.2011), exter (04.09.2011), F1L (03.09.2011), Gellard (03.09.2011), House M.D. (03.09.2011), KalliostroV (04.09.2011), Kingsize87 (08.09.2011), kramskoi (04.09.2011), MOSFET (03.09.2011), paravoz (03.09.2011), rastor (03.09.2011), shkulev aleksandr (04.09.2011), SiriuS1509 (03.09.2011), SKYZ (04.09.2011), Sky™ (04.09.2011), The next (03.09.2011), vinalord (06.09.2011)
Старый 03.09.2011, 17:27   #2
Завсегдатай
 
Аватар для ГраНат27
 
Регистрация: 13.03.2011
Адрес: Балаково
Пол: Мужчина
Сообщений: 245
Сказал(а) спасибо: 267
Поблагодарили 1,752 раз(а) в 324 сообщениях
Отправить сообщение для ГраНат27 с помощью ICQ
По умолчанию

MI
Полное имя : D:\Рип насекомые\Готовый\Bukashki!.3D.2003.DUAL.BDRip-AVC.H264.AC3.-HQCLUB.mkv
Формат : Matroska
Размер файла : 1,16 Гбайт
Продолжительность : 40 м.
Общий поток : 4141 Кбит/сек
Дата кодирования : UTC 2011-09-03 13:05:21
Программа кодирования : mkvmerge v4.9.1 ('Ich will') сборка от Jul 11 2011 23:53:15
Библиотека кодирования : libebml v1.2.1 + libmatroska v1.1.1

Видео
Идентификатор : 1
Формат : AVC
Формат/Информация : Advanced Video Codec
Профиль формата : High@L4.1
Параметр CABAC формата : Да
Параметр ReFrames формата : 4 кадры
Параметры GOP формата : M=6, N=17
Идентификатор кодека : V_MPEG4/ISO/AVC
Продолжительность : 40 м.
Битрейт : 3290 Кбит/сек
Ширина : 1024 пикс.
Высота : 576 пикс.
Соотношение сторон : 16:9
Частота кадров : 23,976 кадр/сек
Цветовое пространство : YUV
Подвыборка цветности : 4:2:0
Битовая глубина : 8 бит
Тип развёртки : Прогрессивная
Бит/(Пиксели*Кадры) : 0.233
Размер потока : 943 Мбайт (79%)
Библиотека кодирования : x264 core 115 r1995 c1e60b9
Настройки программы : cabac=1 / ref=4 / deblock=1:-3:-3 / analyse=0x3:0x113 / me=umh / subme=10 / psy=1 / psy_rd=1.00:0.00 / mixed_ref=1 / me_range=32 / chroma_me=1 / trellis=2 / 8x8dct=1 / cqm=0 / deadzone=21,11 / fast_pskip=0 / chroma_qp_offset=-2 / threads=3 / sliced_threads=0 / nr=0 / decimate=1 / interlaced=0 / bluray_compat=0 / constrained_intra=0 / bframes=9 / b_pyramid=2 / b_adapt=2 / b_bias=0 / direct=3 / weightb=1 / open_gop=0 / weightp=2 / keyint=250 / keyint_min=23 / scenecut=40 / intra_refresh=0 / rc_lookahead=40 / rc=crf / mbtree=0 / crf=17.3 / qcomp=0.60 / qpmin=0 / qpmax=69 / qpstep=4 / vbv_maxrate=50000 / vbv_bufsize=62500 / crf_max=0.0 / nal_hrd=none / ip_ratio=1.40 / pb_ratio=1.30 / aq=1:0.80
Язык : English

Аудио #1
Идентификатор : 2
Формат : AC-3
Формат/Информация : Audio Coding 3
Расширение режима : CM (complete main)
Идентификатор кодека : A_AC3
Продолжительность : 40 м.
Вид битрейта : Постоянный
Битрейт : 384 Кбит/сек
Канал(ы) : 6 канала(ов)
Расположение каналов : Front: L C R, Side: L R, LFE
Частота : 48,0 КГц
Битовая глубина : 16 бит
Метод сжатия : С потерями
Размер потока : 110 Мбайт (9%)
Заголовок : Одноголосый
Язык : Russian

Аудио #2
Идентификатор : 3
Формат : AC-3
Формат/Информация : Audio Coding 3
Расширение режима : CM (complete main)
Идентификатор кодека : A_AC3
Продолжительность : 40 м.
Вид битрейта : Постоянный
Битрейт : 384 Кбит/сек
Канал(ы) : 6 канала(ов)
Расположение каналов : Front: L C R, Side: L R, LFE
Частота : 48,0 КГц
Битовая глубина : 16 бит
Метод сжатия : С потерями
Размер потока : 110 Мбайт (9%)
Заголовок : Оригинал
Язык : English

Меню
00:00:00.000 : :Chapter 01
00:03:08.396 : :Chapter 02
00:06:37.355 : :Chapter 03
00:08:50.613 : :Chapter 04
00:11:59.135 : :Chapter 05
00:14:47.428 : :Chapter 06
00:16:10.636 : :Chapter 07
00:18:05.959 : :Chapter 08
00:19:51.064 : :Chapter 09
00:22:44.988 : :Chapter 10
00:25:05.754 : :Chapter 11
00:28:01.137 : :Chapter 12
00:29:15.587 : :Chapter 13
00:30:55.687 : :Chapter 14
00:33:33.970 : :Chapter 15
00:38:09.245 : :Chapter 16
00:40:03.359 : :Chapter 17


Log

frame I:297 Avg QP:16.27 size: 89456
frame P:9142 Avg QP:17.56 size: 36793
frame B:48185 Avg QP:19.96 size: 13487

consecutive B-frames: 0.8% 0.4% 1.5% 6.0% 10.4% 30.9% 13.7% 18.7% 10.6% 7.0%

ref P L0: 44.3% 14.5% 26.3% 13.3% 1.6% 0.0%
ref B L0: 80.2% 16.1% 3.7%
ref B L1: 87.1% 12.9%


Поехали. Приятного просмотра
__________________
ГраНат27 вне форума   Ответить с цитированием
16 пользователя(ей) сказали cпасибо:
AH4 (03.09.2011), alexgor111 (04.09.2011), Drago (03.09.2011), exter (04.09.2011), F1L (03.09.2011), Gellard (03.09.2011), House M.D. (03.09.2011), KalliostroV (04.09.2011), Kingsize87 (08.09.2011), MOSFET (03.09.2011), paravoz (03.09.2011), rastor (03.09.2011), shkulev aleksandr (04.09.2011), SiriuS1509 (03.09.2011), Sky™ (04.09.2011), The next (03.09.2011)
Старый 03.09.2011, 18:20   #3
Новичок
 
Регистрация: 10.03.2011
Пол: Мужчина
Сообщений: 32
Сказал(а) спасибо: 328
Поблагодарили 148 раз(а) в 32 сообщениях
По умолчанию re:

ГраНат27 спасибо

Последний раз редактировалось rastor; 03.09.2011 в 18:36. Причина: просто
rastor вне форума   Ответить с цитированием
5 пользователя(ей) сказали cпасибо:
Drago (04.09.2011), exter (04.09.2011), Gellard (03.09.2011), House M.D. (03.09.2011), Sky™ (04.09.2011)
Старый 03.09.2011, 18:32   #4
Завсегдатай
 
Аватар для ГраНат27
 
Регистрация: 13.03.2011
Адрес: Балаково
Пол: Мужчина
Сообщений: 245
Сказал(а) спасибо: 267
Поблагодарили 1,752 раз(а) в 324 сообщениях
Отправить сообщение для ГраНат27 с помощью ICQ
По умолчанию

Спасибо
__________________
ГраНат27 вне форума   Ответить с цитированием
7 пользователя(ей) сказали cпасибо:
DenisNN (04.09.2011), Drago (04.09.2011), exter (04.09.2011), Gellard (03.09.2011), House M.D. (03.09.2011), rastor (03.09.2011), Sky™ (04.09.2011)
Ответ

Опции темы
Опции просмотра

Ваши права в разделе
Вы не можете создавать новые темы
Вы не можете отвечать в темах
Вы не можете прикреплять вложения
Вы не можете редактировать свои сообщения

BB коды Вкл.
Смайлы Вкл.
[IMG] код Вкл.
HTML код Выкл.



Текущее время: 11:38. Часовой пояс GMT +3.

Для правообладателей: Форум не предоставляет электронные версии произведений, а содержит ссылки на сторонние ресурсы. Все права на произведения принадлежат правообладателям. Если вы являетесь правообладателем произведения и не желаете чтобы ссылка на него находилась в нашем каталоге, свяжитесь с нами и мы незамедлительно удалим её. Публикация материалов сайта возможна только с разрешения администрации.


Помощь ресурсу
Copyright © 2009 — 2014 R.G. HQCLUB All Rights Reserved.
Powered by vBulletin® Version 3.8.7
Copyright ©2000 - 2018, vBulletin Solutions, Inc. Перевод: zCarot

Яндекс цитирования
Время генерации страницы 0.15318 секунды с 14 запросами