HQCLUB - Форум любителей кино

Загрузить изображение

Вернуться   HQCLUB - Форум любителей кино > Релизы AVC (h264) > Документалистика [AVC]

Документалистика [AVC] Отечественные и зарубежные документальные фильмы.

Ответ
 
Опции темы Опции просмотра
Старый 03.09.2011, 10:13   #1
Завсегдатай
 
Аватар для ГраНат27
 
Регистрация: 13.03.2011
Адрес: Балаково
Пол: Мужчина
Сообщений: 245
Сказал(а) спасибо: 267
Поблагодарили 1,752 раз(а) в 324 сообщениях
Отправить сообщение для ГраНат27 с помощью ICQ
По умолчанию В поисках больших акул / Search for the Great Sharks (1995) BDRip-AVC

В поисках больших акул / Search for the Great Sharks (1995) BDRip-AVC
от
HQCLUB



Информация о фильме:
Название: В поисках больших акул
Оригинальное название: Search for the Great Sharks
Год выхода: 1995
Жанр: документальный, короткометражка
Режиссер: Мэл Вульф
В ролях: Джозеф Кампанелла, Евгения Кларк, Родни Фокс, Mandy Komlosy, Крэйг Линн, Др. Дон Нельсон

О фильме: Путешествие в мир акул. Старый миф плавающих машин для убийств поставлен против истинного характера этих довольно мирных охотников, биологическое совершенство, эволюция которых закончилась миллионы лет назад. Мы сопровождаем экспедиции доктора Евгении Кларк и Родни Фокс, который изучал акул с 1950 х...

IMDB: 6.5 (85 votes)
КиноПоиск: 10.000 (4 votes)

Релиз от -
Автор рипа: ГраНат27

Выпущено: США
Продолжительность: 00:37:53
Перевод: Профессиональный (двухголосый закадровый) "Омикрон" + Оригинальная звуковая дорожка
Субтитры: Нет

Файл:
Формат: mkv
Качество: BDRip (источник: / Blu-Ray Disc / 1080p)
Видео: 1024x576 (1.78:1), 23.976 fps, MPEG-4 AVC, crf, ~3655 kbps
Аудио #1: 48 kHz, AC3, 3/2 (L,C,R,l,r) + LFE ch, ~448.00 kbps avg (RUS)
Аудио #2: 48 kHz, AC3, 3/2 (L,C,R,l,r) + LFE ch, ~448.00 kbps avg (ENG)
Размер: 1.22 Gb
Скачать: Сэмпл



Ссылки для скачивания:

Торрент: В поисках больших акул / Search for the Great Sharks (1995) BDRip-AVC

Цитата:
- Перевод и озвучивание осуществлены за средства клубчан: levanevski, tft, LibrarianA, Доходяга, dpaddr, GROSSMASTER, Loki1982, alb9925, SirBarmalei, Johnny_78, Кириллка, Mushroom, Gercules, gelom.
__________________
ГраНат27 вне форума   Ответить с цитированием
15 пользователя(ей) сказали cпасибо:
AH4 (03.09.2011), DenisNN (03.09.2011), Drago (03.09.2011), exter (04.09.2011), F1L (03.09.2011), Gellard (03.09.2011), House M.D. (03.09.2011), KalliostroV (04.09.2011), paravoz (03.09.2011), shkulev aleksandr (25.09.2011), SiriuS1509 (03.09.2011), Sky™ (03.09.2011), The next (03.09.2011), TyMaH74 (03.09.2011), vinalord (03.09.2011)
Старый 03.09.2011, 10:16   #2
Завсегдатай
 
Аватар для ГраНат27
 
Регистрация: 13.03.2011
Адрес: Балаково
Пол: Мужчина
Сообщений: 245
Сказал(а) спасибо: 267
Поблагодарили 1,752 раз(а) в 324 сообщениях
Отправить сообщение для ГраНат27 с помощью ICQ
По умолчанию

MI
Полное имя : D:\Рип акулы\Готовый\V.poiskah.bolshih.akul.1995.DUAL.BDR ip-AVC.H264.AC3.-HQCLUB.mkv
Формат : Matroska
Размер файла : 1,23 Гбайт
Продолжительность : 37 м.
Общий поток : 4644 Кбит/сек
Дата кодирования : UTC 2011-09-03 05:45:49
Программа кодирования : mkvmerge v4.9.1 ('Ich will') сборка от Jul 11 2011 23:53:15
Библиотека кодирования : libebml v1.2.1 + libmatroska v1.1.1

Видео
Идентификатор : 1
Формат : AVC
Формат/Информация : Advanced Video Codec
Профиль формата : High@L4.1
Параметр CABAC формата : Да
Параметр ReFrames формата : 4 кадры
Идентификатор кодека : V_MPEG4/ISO/AVC
Продолжительность : 37 м.
Битрейт : 3655 Кбит/сек
Ширина : 1024 пикс.
Высота : 576 пикс.
Соотношение сторон : 16:9
Частота кадров : 23,976 кадр/сек
Цветовое пространство : YUV
Подвыборка цветности : 4:2:0
Битовая глубина : 8 бит
Тип развёртки : Прогрессивная
Бит/(Пиксели*Кадры) : 0.258
Размер потока : 990 Мбайт (79%)
Библиотека кодирования : x264 core 115 r1995 c1e60b9
Настройки программы : cabac=1 / ref=4 / deblock=1:-3:-3 / analyse=0x3:0x113 / me=umh / subme=10 / psy=1 / psy_rd=1.00:0.00 / mixed_ref=1 / me_range=32 / chroma_me=1 / trellis=2 / 8x8dct=1 / cqm=0 / deadzone=21,11 / fast_pskip=0 / chroma_qp_offset=-2 / threads=3 / sliced_threads=0 / nr=0 / decimate=1 / interlaced=0 / bluray_compat=0 / constrained_intra=0 / bframes=9 / b_pyramid=2 / b_adapt=2 / b_bias=0 / direct=3 / weightb=1 / open_gop=0 / weightp=2 / keyint=250 / keyint_min=23 / scenecut=40 / intra_refresh=0 / rc_lookahead=40 / rc=crf / mbtree=0 / crf=17.6 / qcomp=0.60 / qpmin=0 / qpmax=69 / qpstep=4 / vbv_maxrate=50000 / vbv_bufsize=62500 / crf_max=0.0 / nal_hrd=none / ip_ratio=1.40 / pb_ratio=1.30 / aq=1:0.80
Язык : English

Аудио #1
Идентификатор : 2
Формат : AC-3
Формат/Информация : Audio Coding 3
Расширение режима : CM (complete main)
Идентификатор кодека : A_AC3
Продолжительность : 37 м.
Вид битрейта : Постоянный
Битрейт : 448 Кбит/сек
Канал(ы) : 6 канала(ов)
Расположение каналов : Front: L C R, Side: L R, LFE
Частота : 48,0 КГц
Битовая глубина : 16 бит
Метод сжатия : С потерями
Размер потока : 121 Мбайт (10%)
Заголовок : Двухголосый
Язык : Russian

Аудио #2
Идентификатор : 3
Формат : AC-3
Формат/Информация : Audio Coding 3
Расширение режима : CM (complete main)
Идентификатор кодека : A_AC3
Продолжительность : 37 м.
Вид битрейта : Постоянный
Битрейт : 448 Кбит/сек
Канал(ы) : 6 канала(ов)
Расположение каналов : Front: L C R, Side: L R, LFE
Частота : 48,0 КГц
Битовая глубина : 16 бит
Метод сжатия : С потерями
Размер потока : 121 Мбайт (10%)
Заголовок : Оригинал
Язык : English

Меню
00:00:00.000 : :Chapter 01
00:03:17.030 : :Chapter 02
00:06:24.842 : :Chapter 03
00:13:35.481 : :Chapter 04
00:15:38.103 : :Chapter 05
00:17:02.021 : :Chapter 06
00:20:34.900 : :Chapter 07
00:35:14.946 : :Chapter 08
00:37:52.728 : :Chapter 09


Log

frame I:263 Avg QP:15.30 size: 63375
frame P:11035 Avg QP:16.58 size: 34476
frame B:43199 Avg QP:19.06 size: 15443

consecutive B-frames: 0.8% 0.7% 3.4% 27.7% 16.1% 44.0% 3.0% 2.7% 1.0% 0.6%

ref P L0: 47.4% 9.1% 27.4% 14.6% 1.5% 0.1%
ref B L0: 83.1% 13.1% 3.7%
ref B L1: 91.7% 8.3%


Поехали. Приятного просмотра
__________________
ГраНат27 вне форума   Ответить с цитированием
12 пользователя(ей) сказали cпасибо:
AH4 (03.09.2011), Drago (03.09.2011), exter (04.09.2011), F1L (03.09.2011), Gellard (03.09.2011), House M.D. (03.09.2011), KalliostroV (04.09.2011), shkulev aleksandr (25.09.2011), SiriuS1509 (03.09.2011), Sky™ (03.09.2011), The next (03.09.2011), TyMaH74 (03.09.2011)
Ответ

Опции темы
Опции просмотра

Ваши права в разделе
Вы не можете создавать новые темы
Вы не можете отвечать в темах
Вы не можете прикреплять вложения
Вы не можете редактировать свои сообщения

BB коды Вкл.
Смайлы Вкл.
[IMG] код Вкл.
HTML код Выкл.



Текущее время: 11:34. Часовой пояс GMT +3.

Для правообладателей: Форум не предоставляет электронные версии произведений, а содержит ссылки на сторонние ресурсы. Все права на произведения принадлежат правообладателям. Если вы являетесь правообладателем произведения и не желаете чтобы ссылка на него находилась в нашем каталоге, свяжитесь с нами и мы незамедлительно удалим её. Публикация материалов сайта возможна только с разрешения администрации.


Помощь ресурсу
Copyright © 2009 — 2014 R.G. HQCLUB All Rights Reserved.
Powered by vBulletin® Version 3.8.7
Copyright ©2000 - 2018, vBulletin Solutions, Inc. Перевод: zCarot

Яндекс цитирования
Время генерации страницы 0.17272 секунды с 14 запросами