HQCLUB - Форум любителей кино

Загрузить изображение

Вернуться   HQCLUB - Форум любителей кино > Релизы AVC (h264) > Документалистика [AVC]

Документалистика [AVC] Отечественные и зарубежные документальные фильмы.

Ответ
 
Опции темы Опции просмотра
Старый 25.09.2011, 17:08   #1
Завсегдатай
 
Аватар для ГраНат27
 
Регистрация: 13.03.2011
Адрес: Балаково
Пол: Мужчина
Сообщений: 245
Сказал(а) спасибо: 267
Поблагодарили 1,752 раз(а) в 324 сообщениях
Отправить сообщение для ГраНат27 с помощью ICQ
По умолчанию Мифы леса / Mythos Wald (2009) BDRip-AVC

Мифы леса / Mythos Wald (2009) BDRip-AVC
от
HQCLUB



Информация о фильме:
Название: Мифы леса
Оригинальное название: Mythos Wald
Год выхода: 2009
Жанр: документальный
Режиссер: Jan Haft / Жан Хафт

О фильме: Основная масса современных документальный фильмов направлена на то, чтоб дать нам представление об окружающем нас мире. Однако этот фильм постарается открыть новую веху в документальный фильмах - документальная драматургия...

Эпизод 1: Животный рай и темные области
Продолжительность: 00:44:34

Независимо от того, растет на песчаной почве вдоль морских побережий или на чисто склонах высоко в горах, будь то на болотистой низменности вдоль рек и ручьев или на солнечных склонах: в нем можно встретить до 4500 видов растений и грибов и его населяют почти 7000 видов фауны. Лес является одним из наиболее богатых живыми видами в наших широтах. Не менее многочисленными являются сказки и легенды о лесе. Однако, ни фей, ни ведьмы, карлики и гиганты в этих историях не могут сравниться с реальностью. Этот фильм представляет коллекцию странных курьезов.

Эпизод 2: Борьба за свет
Продолжительность: 00:44:32

Лес место, которое кажется знакомым, однако, некоторые его секреты до сих пор остаются нераскрытыми. Лес в то же время рай для животных, а также враждебное царство теней. Тем временем мы постепенно понимаем: истинно натуральные деревья наши коллеги и помощники, которые обеспечивают свет и тепло в наших домах. Только тогда, лес станет зеленой Вселенной с избыточной богатство растений и животных и мире, полном больших и малых чудес.

IMDB: 7.7 (13 votes)

Релиз от -
Автор рипа: ГраНат27

Выпущено: Германия
Продолжительность: 01:29:06
Перевод: Авторский (одноголосый закадровый) Ю.Сербин + Немецкая звуковая дорожка
Субтитры: Нет

Файл:
Формат: mkv
Качество: BDRip-AVC (источник: HDClub / Blu-Ray Disc / 1080i)
Видео: 1024x576 (1.78:1), 25.000 fps, MPEG-4 AVC, ~4000 kbps
Аудио #1: 48 kHz, AC3, 2/0 (L,R) ch, ~448.00 kbps avg (RUS)
Аудио #2: 48 kHz, AC3, 2/0 (L,R) ch, ~448.00 kbps avg (GER)
Размер: 3.04 Gb
Скачать: Сэмпл



Ссылки для скачивания:

Торрент: Мифы леса / Mythos Wald (2009) BDRip-AVC

Цитата:
- Дорожка №1 получена наложением чистых голосов на декодированный DTS-HD MA.

- Перевод Ю.Сербина осуществлен в рамках сервиса "Озвучки". Спонсоры: ЕгО_ТенЬ, levanevski, loginoff, Gercules, alb9925, alvane, ufy32, Bocman, yuriker, Johnny_78, dpaddr, rassvet.
__________________
ГраНат27 вне форума   Ответить с цитированием
18 пользователя(ей) сказали cпасибо:
alexgor111 (25.09.2011), antikillW (26.09.2011), arm2008 (04.10.2011), Drago (25.09.2011), Drake (26.09.2011), Dream45 (25.09.2011), Flynn82 (25.09.2011), Gellard (25.09.2011), House M.D. (25.09.2011), Kingsize87 (25.09.2011), MOSFET (25.09.2011), paravoz (25.09.2011), rastor (25.09.2011), shkulev aleksandr (25.09.2011), SnakeP (25.09.2011), traktor_87 (25.09.2011), TyMaH74 (25.09.2011), vinalord (26.09.2011)
Старый 25.09.2011, 17:15   #2
Завсегдатай
 
Аватар для ГраНат27
 
Регистрация: 13.03.2011
Адрес: Балаково
Пол: Мужчина
Сообщений: 245
Сказал(а) спасибо: 267
Поблагодарили 1,752 раз(а) в 324 сообщениях
Отправить сообщение для ГраНат27 с помощью ICQ
По умолчанию

MI EP01
Полное имя : D:\Рип леса\Mify.lesa.2-SE.2009.DUAL.BDRip-AVC.H264.AC3.-HQCLUB\Mify.lesa.E01.2009.DUAL.BDRip-AVC.H264.AC3.-HQCLUB.mkv
Формат : Matroska
Размер файла : 1,52 Гбайт
Продолжительность : 44 м.
Общий поток : 4894 Кбит/сек
Дата кодирования : UTC 2011-09-25 08:55:01
Программа кодирования : mkvmerge v4.9.1 ('Ich will') сборка от Jul 11 2011 23:53:15
Библиотека кодирования : libebml v1.2.1 + libmatroska v1.1.1

Видео
Идентификатор : 1
Формат : AVC
Формат/Информация : Advanced Video Codec
Профиль формата : High@L4.1
Параметр CABAC формата : Да
Параметр ReFrames формата : 4 кадры
Идентификатор кодека : V_MPEG4/ISO/AVC
Продолжительность : 44 м.
Битрейт : 4000 Кбит/сек
Ширина : 1024 пикс.
Высота : 576 пикс.
Соотношение сторон : 16:9
Частота кадров : 25,000 кадр/сек
Цветовое пространство : YUV
Подвыборка цветности : 4:2:0
Битовая глубина : 8 бит
Тип развёртки : Прогрессивная
Бит/(Пиксели*Кадры) : 0.271
Размер потока : 1,21 Гбайт (80%)
Библиотека кодирования : x264 core 115 r1995 c1e60b9
Настройки программы : cabac=1 / ref=4 / deblock=1:-3:-3 / analyse=0x3:0x113 / me=umh / subme=10 / psy=1 / psy_rd=1.00:0.00 / mixed_ref=1 / me_range=32 / chroma_me=1 / trellis=2 / 8x8dct=1 / cqm=0 / deadzone=21,11 / fast_pskip=0 / chroma_qp_offset=-2 / threads=3 / sliced_threads=0 / nr=0 / decimate=1 / interlaced=0 / bluray_compat=0 / constrained_intra=0 / bframes=8 / b_pyramid=2 / b_adapt=2 / b_bias=0 / direct=3 / weightb=1 / open_gop=0 / weightp=2 / keyint=250 / keyint_min=25 / scenecut=40 / intra_refresh=0 / rc_lookahead=40 / rc=2pass / mbtree=0 / bitrate=4000 / ratetol=1.0 / qcomp=0.60 / qpmin=0 / qpmax=69 / qpstep=4 / cplxblur=20.0 / qblur=0.5 / vbv_maxrate=50000 / vbv_bufsize=62500 / nal_hrd=none / ip_ratio=1.40 / pb_ratio=1.30 / aq=1:0.80
Язык : English

Аудио #1
Идентификатор : 2
Формат : AC-3
Формат/Информация : Audio Coding 3
Расширение режима : CM (complete main)
Идентификатор кодека : A_AC3
Продолжительность : 44 м.
Вид битрейта : Постоянный
Битрейт : 448 Кбит/сек
Канал(ы) : 2 канала(ов)
Расположение каналов : Front: L R
Частота : 48,0 КГц
Битовая глубина : 16 бит
Метод сжатия : С потерями
Размер потока : 143 Мбайт (9%)
Заголовок : Ю.Сербин
Язык : Russian

Аудио #2
Идентификатор : 3
Формат : AC-3
Формат/Информация : Audio Coding 3
Расширение режима : CM (complete main)
Идентификатор кодека : A_AC3
Продолжительность : 44 м.
Вид битрейта : Постоянный
Битрейт : 448 Кбит/сек
Канал(ы) : 2 канала(ов)
Расположение каналов : Front: L R
Частота : 48,0 КГц
Битовая глубина : 16 бит
Метод сжатия : С потерями
Размер потока : 143 Мбайт (9%)
Заголовок : Оригинал
Язык : German

Меню
00:00:00.000 : en:00:00:00.000
00:01:03.000 : en:00:01:03.000
00:09:12.000 : en:00:09:12.000
00:19:26.000 : en:00:19:26.000
00:29:15.000 : en:00:29:15.000
00:38:02.000 : en:00:38:02.000
00:44:12.000 : en:00:44:12.000

MI EP02
Полное имя : D:\Рип леса\Mify.lesa.2-SE.2009.DUAL.BDRip-AVC.H264.AC3.-HQCLUB\Mify.lesa.E02.2009.DUAL.BDRip-AVC.H264.AC3.-HQCLUB.mkv
Формат : Matroska
Размер файла : 1,52 Гбайт
Продолжительность : 44 м.
Общий поток : 4894 Кбит/сек
Дата кодирования : UTC 2011-09-25 08:58:13
Программа кодирования : mkvmerge v4.9.1 ('Ich will') сборка от Jul 11 2011 23:53:15
Библиотека кодирования : libebml v1.2.1 + libmatroska v1.1.1

Видео
Идентификатор : 1
Формат : AVC
Формат/Информация : Advanced Video Codec
Профиль формата : High@L4.1
Параметр CABAC формата : Да
Параметр ReFrames формата : 4 кадры
Идентификатор кодека : V_MPEG4/ISO/AVC
Продолжительность : 44 м.
Битрейт : 4000 Кбит/сек
Ширина : 1024 пикс.
Высота : 576 пикс.
Соотношение сторон : 16:9
Частота кадров : 25,000 кадр/сек
Цветовое пространство : YUV
Подвыборка цветности : 4:2:0
Битовая глубина : 8 бит
Тип развёртки : Прогрессивная
Бит/(Пиксели*Кадры) : 0.271
Размер потока : 1,21 Гбайт (80%)
Библиотека кодирования : x264 core 115 r1995 c1e60b9
Настройки программы : cabac=1 / ref=4 / deblock=1:-3:-3 / analyse=0x3:0x113 / me=umh / subme=10 / psy=1 / psy_rd=1.00:0.00 / mixed_ref=1 / me_range=32 / chroma_me=1 / trellis=2 / 8x8dct=1 / cqm=0 / deadzone=21,11 / fast_pskip=0 / chroma_qp_offset=-2 / threads=3 / sliced_threads=0 / nr=0 / decimate=1 / interlaced=0 / bluray_compat=0 / constrained_intra=0 / bframes=8 / b_pyramid=2 / b_adapt=2 / b_bias=0 / direct=3 / weightb=1 / open_gop=0 / weightp=2 / keyint=250 / keyint_min=25 / scenecut=40 / intra_refresh=0 / rc_lookahead=40 / rc=2pass / mbtree=0 / bitrate=4000 / ratetol=1.0 / qcomp=0.60 / qpmin=0 / qpmax=69 / qpstep=4 / cplxblur=20.0 / qblur=0.5 / vbv_maxrate=50000 / vbv_bufsize=62500 / nal_hrd=none / ip_ratio=1.40 / pb_ratio=1.30 / aq=1:0.80
Язык : English

Аудио #1
Идентификатор : 2
Формат : AC-3
Формат/Информация : Audio Coding 3
Расширение режима : CM (complete main)
Идентификатор кодека : A_AC3
Продолжительность : 44 м.
Вид битрейта : Постоянный
Битрейт : 448 Кбит/сек
Канал(ы) : 2 канала(ов)
Расположение каналов : Front: L R
Частота : 48,0 КГц
Битовая глубина : 16 бит
Метод сжатия : С потерями
Размер потока : 143 Мбайт (9%)
Заголовок : Ю.Сербин
Язык : Russian

Аудио #2
Идентификатор : 3
Формат : AC-3
Формат/Информация : Audio Coding 3
Расширение режима : CM (complete main)
Идентификатор кодека : A_AC3
Продолжительность : 44 м.
Вид битрейта : Постоянный
Битрейт : 448 Кбит/сек
Канал(ы) : 2 канала(ов)
Расположение каналов : Front: L R
Частота : 48,0 КГц
Битовая глубина : 16 бит
Метод сжатия : С потерями
Размер потока : 143 Мбайт (9%)
Заголовок : Оригинал
Язык : German

Меню
00:00:00.000 : en:00:00:00.000
00:00:56.000 : en:00:00:56.000
00:09:55.000 : en:00:09:55.000
00:18:55.000 : en:00:18:55.000
00:29:17.000 : en:00:29:17.000
00:38:19.000 : en:00:38:19.000
00:44:11.000 : en:00:44:11.000

Log EP01

frame I:445 Avg QP:15.52 size:119174
frame P:15037 Avg QP:19.04 size: 34895
frame B:51368 Avg QP:20.79 size: 14763

consecutive B-frames: 2.5% 2.9% 7.5% 25.2% 14.2% 36.9% 7.2% 1.8% 1.8%

ref P L0: 52.3% 15.7% 21.7% 8.9% 1.3% 0.1%
ref B L0: 86.6% 10.7% 2.7%
ref B L1: 92.9% 7.1%

Log EP02

frame I:441 Avg QP:15.22 size:135616
frame P:15236 Avg QP:18.64 size: 36282
frame B:51123 Avg QP:20.27 size: 14134

consecutive B-frames: 2.3% 3.0% 9.3% 26.5% 14.9% 33.8% 6.5% 1.7% 2.0%

ref P L0: 53.1% 16.0% 21.6% 8.1% 1.1% 0.1%
ref B L0: 87.4% 10.2% 2.4%
ref B L1: 93.1% 6.9%


Поехали. Приятного просмотра
__________________

Последний раз редактировалось ГраНат27; 25.09.2011 в 17:23.
ГраНат27 вне форума   Ответить с цитированием
12 пользователя(ей) сказали cпасибо:
alexgor111 (25.09.2011), antikillW (26.09.2011), Drago (25.09.2011), Dream45 (25.09.2011), Flynn82 (25.09.2011), Gellard (25.09.2011), House M.D. (25.09.2011), MOSFET (25.09.2011), paravoz (25.09.2011), rastor (25.09.2011), shkulev aleksandr (25.09.2011), TyMaH74 (25.09.2011)
Старый 25.09.2011, 17:46   #3
Новичок
 
Регистрация: 10.03.2011
Пол: Мужчина
Сообщений: 32
Сказал(а) спасибо: 328
Поблагодарили 148 раз(а) в 32 сообщениях
По умолчанию

спасибо, обожаю документалистику
rastor вне форума   Ответить с цитированием
4 пользователя(ей) сказали cпасибо:
Drago (25.09.2011), Dream45 (25.09.2011), Gellard (25.09.2011), House M.D. (25.09.2011)
Старый 04.10.2011, 20:19   #4
V.I.P
 
Аватар для ABTOP
 
Регистрация: 24.10.2009
Сообщений: 643
Сказал(а) спасибо: 2,592
Поблагодарили 1,563 раз(а) в 453 сообщениях
По умолчанию

Вот ещё бы кто-нибудь сделал сиё великолепие в XviD! Желающие есть?
__________________
ABTOP вне форума   Ответить с цитированием
2 пользователя(ей) сказали cпасибо:
Gellard (08.10.2011), House M.D. (04.10.2011)
Старый 04.10.2011, 20:21   #5
Завсегдатай
 
Аватар для ГраНат27
 
Регистрация: 13.03.2011
Адрес: Балаково
Пол: Мужчина
Сообщений: 245
Сказал(а) спасибо: 267
Поблагодарили 1,752 раз(а) в 324 сообщениях
Отправить сообщение для ГраНат27 с помощью ICQ
По умолчанию

Я сделаю, если научусь
__________________
ГраНат27 вне форума   Ответить с цитированием
2 пользователя(ей) сказали cпасибо:
Gellard (08.10.2011), House M.D. (04.10.2011)
Старый 04.10.2011, 20:22   #6
Завсегдатаи
 
Аватар для sawyer4
 
Регистрация: 14.11.2009
Адрес: Голубые Холмы
Пол: Мужчина
Сообщений: 2,819
Сказал(а) спасибо: 13
Поблагодарили 12,197 раз(а) в 2,892 сообщениях
Отправить сообщение для sawyer4 с помощью ICQ
По умолчанию

ГраНат27, и не учись, ави есть кому делать лучше радуй авц
__________________
Моя Страничка на КиноПоиске
now you're fast, we're furious...
sawyer4 вне форума   Ответить с цитированием
2 пользователя(ей) сказали cпасибо:
Gellard (08.10.2011), House M.D. (04.10.2011)
Ответ

Опции темы
Опции просмотра

Ваши права в разделе
Вы не можете создавать новые темы
Вы не можете отвечать в темах
Вы не можете прикреплять вложения
Вы не можете редактировать свои сообщения

BB коды Вкл.
Смайлы Вкл.
[IMG] код Вкл.
HTML код Выкл.



Текущее время: 20:29. Часовой пояс GMT +3.

Для правообладателей: Форум не предоставляет электронные версии произведений, а содержит ссылки на сторонние ресурсы. Все права на произведения принадлежат правообладателям. Если вы являетесь правообладателем произведения и не желаете чтобы ссылка на него находилась в нашем каталоге, свяжитесь с нами и мы незамедлительно удалим её. Публикация материалов сайта возможна только с разрешения администрации.


Помощь ресурсу
Copyright © 2009 — 2014 R.G. HQCLUB All Rights Reserved.
Powered by vBulletin® Version 3.8.7
Copyright ©2000 - 2018, vBulletin Solutions, Inc. Перевод: zCarot

Яндекс цитирования
Время генерации страницы 0.20376 секунды с 16 запросами