HQCLUB - Форум любителей кино

Загрузить изображение

Вернуться   HQCLUB - Форум любителей кино > Релизы AVC (h264) > Фильмы до 1990 г. [AVC]

Фильмы до 1990 г. [AVC] Зарубежные фильмы до 1990 г.

Ответ
 
Опции темы Опции просмотра
Старый 24.06.2015, 16:26   #1
Sub-эксперт
 
Аватар для Elheym
 
Регистрация: 10.01.2014
Пол: Мужчина
Сообщений: 1,526
Сказал(а) спасибо: 11,831
Поблагодарили 12,070 раз(а) в 1,783 сообщениях
По умолчанию Хищник / Predator (1987) BDRip 720p

Хищник / Predator (1987) BDRip 720p
от
HQCLUB



Информация о фильме:
Название: Хищник
Оригинальное название: Predator
Год выхода: 1987
Жанр: фантастика, боевик, приключения
Режиссер: Джон МакТирнан / John McTiernan
В ролях: Арнольд Шварценеггер, Карл Уэверз, Элпидия Каррильо, Билл Дьюк, Джесси Вентура, Сонни Лендхэм, Ричард Чавес, Р.Г. Армстронг, Шэйн Блэк, Кевин Питер Холл, Steve Boyum, Уильям Х. Бертон, Генри Кинги, Свен-Оле Торсен

О фильме: Американский вертолет был сбит партизанами в Южной Америке. Оставшийся в живых экипаж находится в плену. Центральное разведывательное управление США бросает свои лучшие силы для освобождения американских граждан.

Элитная группа спецназа во главе с Датчем была заброшена в южноамериканские джунгли.

«In this movie, Arnold will experience every meaning of the word '' Pain ''»



Релиз от -
Автор рипа: Elheym

Выпущено: США ‖ 20th Century Fox Film Corporation, Amercent Films, American Entertainment Partners L.P., Davis Entertainment, Lawrence Gordon Productions, Silver Pictures
Продолжительность: 01:46:35
Перевод 01: Профессиональный (полное дублирование) BD EUR
Перевод 02: Профессиональный (многоголосый, закадровый) Киномания
Перевод 03: Профессиональный (многоголосый, закадровый) ОРТ
Перевод 04: Профессиональный (многоголосый, закадровый) Гемини (R5)
Перевод 05: Профессиональный (двухголосый, закадровый) П. Гланц и И. Королева
Перевод 06: Профессиональный (двухголосый, закадровый) НТВ
Перевод 07: Авторский (одноголосый, закадровый) Ю. Живов
Перевод 08: Авторский (одноголосый, закадровый) А. Гаврилов
Перевод 09: Авторский (одноголосый, закадровый) В. Горчаков
Перевод 10: Авторский (одноголосый, закадровый) Г. Либергал
Перевод 11: Авторский (одноголосый, закадровый) Б. Федоров
Перевод 12: Авторский (одноголосый, закадровый) Дмитрий «Гоблин» Пучков**
Оригинальная аудиодорожка: английская
Субтитры: русские (полные: BD, неизвестный, Гоблин**), украинские (полные**), английские (полные)
Главы: присутствуют, сохранены оригинальные

Файл:
Формат: MKV
Качество: BDRip 720p (источник: / Blu-ray EUR [Predator 1987 Blu-ray 1080p MPEG-2 DTS-HD MA 5.1-CtrlHD] / 1080p)
Видео: 1280x694 (1.85:1), 23.976 fps, MPEG-4 AVC, ~9500 kbps avg, 0.446 bit/pixel
Аудио #01: 48 kHz, AC3 Dolby Digital, 3/2 (L,C,R,l,r) + LFE ch, ~640 kbps avg (DUB)
Аудио #02: 48 kHz, AC3 Dolby Digital, 3/2 (L,C,R,l,r) + LFE ch, ~640 kbps avg (MVO.KINOMANIJA)
Аудио #03: 48 kHz, AC3 Dolby Digital, 2/0 (L,R) ch, ~192 kbps avg (MVO.ORT)
Аудио #04: 48 kHz, AC3 Dolby Digital, 3/2 (L,C,R,l,r) + LFE ch, ~384 kbps avg (MVO.GEMINI.R5)
Аудио #05: 48 kHz, AC3 Dolby Digital, 3/2 (L,C,R,l,r) + LFE ch, ~640 kbps avg (DVO.GLANC)
Аудио #06: 48 kHz, AC3 Dolby Digital, 2/0 (L,R) ch, ~256 kbps avg (DVO.NTV)
Аудио #07: 48 kHz, AC3 Dolby Digital, 2/0 (L,R) ch, ~256 kbps avg (AVO.ZHIVOV)
Аудио #08: 48 kHz, AC3 Dolby Digital, 3/2 (L,C,R,l,r) + LFE ch, ~640 kbps avg (AVO.GAVRILOV)
Аудио #09: 48 kHz, AC3 Dolby Digital, 2/0 (L,R) ch, ~256 kbps avg (AVO.GORCHAKOV)
Аудио #10: 48 kHz, AC3 Dolby Digital, 2/0 (L,R) ch, ~256 kbps avg (AVO.LIBERGAL)
Аудио #11: 48 kHz, AC3 Dolby Digital, 2/0 (L,R) ch, ~192 kbps avg (AVO.FEDOROV)
Аудио #12: 48 kHz, AC3 Dolby Digital, 3/2 (L,C,R,l,r) + LFE ch, ~640 kbps avg (AVO.PUCHKOV)
Аудио #13: 48 kHz, AC3 Dolby Digital, 3/2 (L,C,R,l,r) + LFE ch, ~384 kbps avg (UKR.DVO.1+1)
Аудио #14: 48 kHz, AC3 Dolby Digital, 3/2 (L,C,R,l,r) + LFE ch, ~384 kbps avg (UKR.DVO.ICTV)
Аудио #15: 48 kHz, AC3 Dolby Digital, 3/2 (L,C,R,l,r) + LFE ch, ~640 kbps avg (ENG)
Размер: 11.8 GB
Сэмпл: скачать



MediaInfo

Уникальный идентификатор : 233188687547212187219727008264397820628 (0xAF6E81F2552B8DB8A705E4DAC1A092D4)
Полное имя : Predator.1987.720p.BluRay.12xRus.2xUkr.Eng.-HQCLUB.mkv
Формат : Matroska
Версия формата : Version 2
Размер файла : 11,8 Гбайт
Продолжительность : 1 ч. 46 м.
Общий поток : 15,9 Мбит/сек
Название фильма : Хищник / Predator (1987) BDRip 720p by HQCLUB [Elheym]
Дата кодирования : UTC 2015-06-24 13:00:18
Программа кодирования : mkvmerge v5.2.0 ('I can't explain') built on Dec 18 2011 18:12:03
Библиотека кодирования : libebml v1.2.3 + libmatroska v1.3.0
Attachements : Cover.gif

Видео
Идентификатор : 1
Формат : AVC
Формат/Информация : Advanced Video Codec
Профиль формата : High@L4.1
Параметр CABAC формата : Да
Параметр ReFrames формата : 8 кадров
Идентификатор кодека : V_MPEG4/ISO/AVC
Продолжительность : 1 ч. 46 м.
Битрейт : 9500 Кбит/сек
Ширина : 1280 пикселей
Высота : 694 пикселя
Соотношение сторон : 1,85:1
Режим частоты кадров : Постоянный
Частота кадров : 23,976 кадра/сек
Цветовое пространство : YUV
Субдискретизация насыщенности : 4:2:0
Битовая глубина : 8 бит
Тип развёртки : Прогрессивная
Бит/(Пиксели*Кадры) : 0.446
Размер потока : 6,84 Гбайт (58%)
Заголовок : Хищник / Predator (1987) BDRip 720p by HQCLUB [Elheym]
Библиотека кодирования : x264 core 146 r0+2586 e393126 t_mod_Custom [8-bit@all X86_64]
Настройки программы : cabac=1 / ref=8 / deblock=1:-3:-2 / analyse=0x3:0x113 / me=umh / subme=11 / psy=1 / fade_compensate=0.00 / psy_rd=1.10:0.15 / mixed_ref=1 / me_range=32 / chroma_me=1 / trellis=2 / 8x8dct=1 / cqm=0 / deadzone=17,11 / fast_pskip=0 / chroma_qp_offset=-3 / threads=6 / lookahead_threads=2 / sliced_threads=0 / nr=0 / decimate=0 / interlaced=0 / bluray_compat=0 / constrained_intra=0 / fgo=0 / bframes=13 / b_pyramid=2 / b_adapt=2 / b_bias=0 / direct=3 / weightb=1 / open_gop=0 / weightp=2 / keyint=240 / keyint_min=23 / scenecut=40 / intra_refresh=0 / rc_lookahead=80 / rc=2pass / mbtree=0 / bitrate=9500 / ratetol=1.0 / qcomp=0.85 / qpmin=0:0:0 / qpmax=69:69:69 / qpstep=4 / cplxblur=20.0 / qblur=0.5 / vbv_maxrate=50000 / vbv_bufsize=62500 / nal_hrd=none / filler=0 / ip_ratio=1.40 / pb_ratio=1.30 / aq=2:0.90 / aq-sensitivity=8.00 / aq-factor=1.00:0.50:0.50 / aq2=0 / aq3=0 / zones=149229,153335,b=0.2
Язык : English
Default : Да
Forced : Нет

Аудио #1
Идентификатор : 2
Формат : AC-3
Формат/Информация : Audio Coding 3
Расширение режима : CM (complete main)
Параметр Endianness формата : Big
Идентификатор кодека : A_AC3
Продолжительность : 1 ч. 46 м.
Вид битрейта : Постоянный
Битрейт : 640 Кбит/сек
Каналы : 6 каналов
Расположение каналов : Front: L C R, Side: L R, LFE
Частота : 48,0 КГц
Метод сжатия : С потерями
Размер потока : 488 Мбайт (4%)
Заголовок : АС3 5.1 @ 640 kbps - Dub, BD EUR
Язык : Russian
Default : Нет
Forced : Нет

Аудио #2
Идентификатор : 3
Формат : AC-3
Формат/Информация : Audio Coding 3
Расширение режима : CM (complete main)
Параметр Endianness формата : Big
Идентификатор кодека : A_AC3
Продолжительность : 1 ч. 46 м.
Вид битрейта : Постоянный
Битрейт : 640 Кбит/сек
Каналы : 6 каналов
Расположение каналов : Front: L C R, Side: L R, LFE
Частота : 48,0 КГц
Метод сжатия : С потерями
Размер потока : 488 Мбайт (4%)
Заголовок : АС3 5.1 @ 640 kbps - MVO, Kinomanija
Язык : Russian
Default : Нет
Forced : Нет

Аудио #3
Идентификатор : 4
Формат : AC-3
Формат/Информация : Audio Coding 3
Расширение режима : CM (complete main)
Параметр Endianness формата : Big
Идентификатор кодека : A_AC3
Продолжительность : 1 ч. 46 м.
Вид битрейта : Постоянный
Битрейт : 192 Кбит/сек
Каналы : 2 канала
Расположение каналов : Front: L R
Частота : 48,0 КГц
Метод сжатия : С потерями
Размер потока : 146 Мбайт (1%)
Заголовок : АС3 2.0 @ 192 kbps - MVO, ORT
Язык : Russian
Default : Нет
Forced : Нет

Аудио #4
Идентификатор : 5
Формат : AC-3
Формат/Информация : Audio Coding 3
Расширение режима : CM (complete main)
Параметр Endianness формата : Big
Идентификатор кодека : A_AC3
Продолжительность : 1 ч. 46 м.
Вид битрейта : Постоянный
Битрейт : 384 Кбит/сек
Каналы : 6 каналов
Расположение каналов : Front: L C R, Side: L R, LFE
Частота : 48,0 КГц
Метод сжатия : С потерями
Размер потока : 293 Мбайт (2%)
Заголовок : АС3 5.1 @ 384 kbps - MVO, Gemini (R5)
Язык : Russian
Default : Нет
Forced : Нет

Аудио #5
Идентификатор : 6
Формат : AC-3
Формат/Информация : Audio Coding 3
Расширение режима : CM (complete main)
Параметр Endianness формата : Big
Идентификатор кодека : A_AC3
Продолжительность : 1 ч. 46 м.
Вид битрейта : Постоянный
Битрейт : 640 Кбит/сек
Каналы : 6 каналов
Расположение каналов : Front: L C R, Side: L R, LFE
Частота : 48,0 КГц
Метод сжатия : С потерями
Размер потока : 488 Мбайт (4%)
Заголовок : АС3 5.1 @ 640 kbps - DVO, Glanc i Koroleva
Язык : Russian
Default : Нет
Forced : Нет

Аудио #6
Идентификатор : 7
Формат : AC-3
Формат/Информация : Audio Coding 3
Расширение режима : CM (complete main)
Параметр Endianness формата : Big
Идентификатор кодека : A_AC3
Продолжительность : 1 ч. 46 м.
Вид битрейта : Постоянный
Битрейт : 256 Кбит/сек
Каналы : 2 канала
Расположение каналов : Front: L R
Частота : 48,0 КГц
Метод сжатия : С потерями
Размер потока : 195 Мбайт (2%)
Заголовок : АС3 2.0 @ 256 kbps - DVO, NTV
Язык : Russian
Default : Нет
Forced : Нет

Аудио #7
Идентификатор : 8
Формат : AC-3
Формат/Информация : Audio Coding 3
Расширение режима : CM (complete main)
Параметр Endianness формата : Big
Идентификатор кодека : A_AC3
Продолжительность : 1 ч. 46 м.
Вид битрейта : Постоянный
Битрейт : 256 Кбит/сек
Каналы : 2 канала
Расположение каналов : Front: L R
Частота : 48,0 КГц
Метод сжатия : С потерями
Размер потока : 195 Мбайт (2%)
Заголовок : АС3 2.0 @ 256 kbps - AVO, Zhivov
Язык : Russian
Default : Нет
Forced : Нет

Аудио #8
Идентификатор : 9
Формат : AC-3
Формат/Информация : Audio Coding 3
Расширение режима : CM (complete main)
Параметр Endianness формата : Big
Идентификатор кодека : A_AC3
Продолжительность : 1 ч. 46 м.
Вид битрейта : Постоянный
Битрейт : 640 Кбит/сек
Каналы : 6 каналов
Расположение каналов : Front: L C R, Side: L R, LFE
Частота : 48,0 КГц
Метод сжатия : С потерями
Размер потока : 488 Мбайт (4%)
Заголовок : АС3 5.1 @ 640 kbps - AVO, Gavrilov
Язык : Russian
Default : Нет
Forced : Нет

Аудио #9
Идентификатор : 10
Формат : AC-3
Формат/Информация : Audio Coding 3
Расширение режима : CM (complete main)
Параметр Endianness формата : Big
Идентификатор кодека : A_AC3
Продолжительность : 1 ч. 46 м.
Вид битрейта : Постоянный
Битрейт : 256 Кбит/сек
Каналы : 2 канала
Расположение каналов : Front: L R
Частота : 48,0 КГц
Метод сжатия : С потерями
Размер потока : 195 Мбайт (2%)
Заголовок : АС3 2.0 @ 256 kbps - AVO, Gorchakov
Язык : Russian
Default : Нет
Forced : Нет

Аудио #10
Идентификатор : 11
Формат : AC-3
Формат/Информация : Audio Coding 3
Расширение режима : CM (complete main)
Параметр Endianness формата : Big
Идентификатор кодека : A_AC3
Продолжительность : 1 ч. 46 м.
Вид битрейта : Постоянный
Битрейт : 256 Кбит/сек
Каналы : 2 канала
Расположение каналов : Front: L R
Частота : 48,0 КГц
Метод сжатия : С потерями
Размер потока : 195 Мбайт (2%)
Заголовок : АС3 2.0 @ 256 kbps - AVO, Libergal
Язык : Russian
Default : Нет
Forced : Нет

Аудио #11
Идентификатор : 12
Формат : AC-3
Формат/Информация : Audio Coding 3
Расширение режима : CM (complete main)
Параметр Endianness формата : Big
Идентификатор кодека : A_AC3
Продолжительность : 1 ч. 46 м.
Вид битрейта : Постоянный
Битрейт : 192 Кбит/сек
Каналы : 2 канала
Расположение каналов : Front: L R
Частота : 48,0 КГц
Метод сжатия : С потерями
Размер потока : 146 Мбайт (1%)
Заголовок : АС3 2.0 @ 192 kbps - AVO, Fedorov
Язык : Russian
Default : Нет
Forced : Нет

Аудио #12
Идентификатор : 13
Формат : AC-3
Формат/Информация : Audio Coding 3
Расширение режима : CM (complete main)
Параметр Endianness формата : Big
Идентификатор кодека : A_AC3
Продолжительность : 1 ч. 46 м.
Вид битрейта : Постоянный
Битрейт : 640 Кбит/сек
Каналы : 6 каналов
Расположение каналов : Front: L C R, Side: L R, LFE
Частота : 48,0 КГц
Метод сжатия : С потерями
Размер потока : 488 Мбайт (4%)
Заголовок : АС3 5.1 @ 640 kbps - AVO, Dmitrij «Goblin» Puchkov
Язык : Russian
Default : Нет
Forced : Нет

Аудио #13
Идентификатор : 14
Формат : AC-3
Формат/Информация : Audio Coding 3
Расширение режима : CM (complete main)
Параметр Endianness формата : Big
Идентификатор кодека : A_AC3
Продолжительность : 1 ч. 46 м.
Вид битрейта : Постоянный
Битрейт : 384 Кбит/сек
Каналы : 6 каналов
Расположение каналов : Front: L C R, Side: L R, LFE
Частота : 48,0 КГц
Метод сжатия : С потерями
Размер потока : 293 Мбайт (2%)
Заголовок : АС3 5.1 @ 384 kbps - DVO, 1+1
Язык : Ukrainian
Default : Нет
Forced : Нет

Аудио #14
Идентификатор : 15
Формат : AC-3
Формат/Информация : Audio Coding 3
Расширение режима : CM (complete main)
Параметр Endianness формата : Big
Идентификатор кодека : A_AC3
Продолжительность : 1 ч. 46 м.
Вид битрейта : Постоянный
Битрейт : 384 Кбит/сек
Каналы : 6 каналов
Расположение каналов : Front: L C R, Side: L R, LFE
Частота : 48,0 КГц
Метод сжатия : С потерями
Размер потока : 293 Мбайт (2%)
Заголовок : АС3 5.1 @ 384 kbps - DVO, ICTV
Язык : Ukrainian
Default : Нет
Forced : Нет

Аудио #15
Идентификатор : 16
Формат : AC-3
Формат/Информация : Audio Coding 3
Расширение режима : CM (complete main)
Параметр Endianness формата : Big
Идентификатор кодека : A_AC3
Продолжительность : 1 ч. 46 м.
Вид битрейта : Постоянный
Битрейт : 640 Кбит/сек
Каналы : 6 каналов
Расположение каналов : Front: L C R, Side: L R, LFE
Частота : 48,0 КГц
Метод сжатия : С потерями
Размер потока : 488 Мбайт (4%)
Заголовок : АС3 5.1 @ 640 kbps - Original
Язык : English
Default : Нет
Forced : Нет

Текст #1
Идентификатор : 17
Формат : UTF-8
Идентификатор кодека : S_TEXT/UTF8
Идентификатор кодека/Информация : UTF-8 Plain Text
Заголовок : Full, BD
Язык : Russian
Default : Нет
Forced : Нет

Текст #2
Идентификатор : 18
Формат : UTF-8
Идентификатор кодека : S_TEXT/UTF8
Идентификатор кодека/Информация : UTF-8 Plain Text
Заголовок : Full, v2
Язык : Russian
Default : Нет
Forced : Нет

Текст #3
Идентификатор : 19
Формат : UTF-8
Идентификатор кодека : S_TEXT/UTF8
Идентификатор кодека/Информация : UTF-8 Plain Text
Заголовок : Full, Goblin [Uncencored]
Язык : Russian
Default : Нет
Forced : Нет

Текст #4
Идентификатор : 20
Формат : UTF-8
Идентификатор кодека : S_TEXT/UTF8
Идентификатор кодека/Информация : UTF-8 Plain Text
Заголовок : Full [Uncencored]
Язык : Ukrainian
Default : Нет
Forced : Нет

Текст #5
Идентификатор : 21
Формат : UTF-8
Идентификатор кодека : S_TEXT/UTF8
Идентификатор кодека/Информация : UTF-8 Plain Text
Заголовок : Full
Язык : English
Default : Нет
Forced : Нет

Меню
00:00:00.000 : :Chapter 01
00:04:04.284 : :Chapter 02
00:06:29.639 : :Chapter 03
00:10:32.464 : :Chapter 04
00:18:21.183 : :Chapter 05
00:20:21.553 : :Chapter 06
00:27:52.337 : :Chapter 07
00:31:04.279 : :Chapter 08
00:34:53.716 : :Chapter 09
00:37:49.600 : :Chapter 10
00:41:00.833 : :Chapter 11
00:46:33.373 : :Chapter 12
00:53:08.685 : :Chapter 13
01:01:37.402 : :Chapter 14
01:04:08.761 : :Chapter 15
01:08:09.919 : :Chapter 16
01:14:10.362 : :Chapter 17
01:15:50.212 : :Chapter 18
01:18:27.369 : :Chapter 19
01:20:55.015 : :Chapter 20
01:25:09.270 : :Chapter 21
01:34:31.832 : :Chapter 22
01:35:49.118 : :Chapter 23
01:39:58.659 : :Chapter 24
01:42:56.170 : :Chapter 25

x264 log

x264 [info]: frame I:948 Avg QP:15.68 size:159586
x264 [info]: frame P:31567 Avg QP:18.80 size: 79527
x264 [info]: frame B:120821 Avg QP:20.66 size: 40779

x264 [info]: consecutive B-frames: 1.8% 2.8% 6.8% 15.7% 12.8% 42.8% 6.9% 2.8% 3.0% 1.9% 0.9% 1.0% 0.4% 0.2%

x264 [info]: ref P L0: 39.8% 11.0% 20.2% 8.6% 7.4% 5.0% 4.8% 2.9% 0.4% 0.0%
x264 [info]: ref B L0: 73.4% 12.9% 6.2% 3.3% 2.4% 1.3% 0.4%
x264 [info]: ref B L1: 92.5% 7.5%


Ссылки для скачивания:

Торрент: Хищник / Predator (1987) BDRip 720p
__________________
Elheym вне форума   Ответить с цитированием
14 пользователя(ей) сказали cпасибо:
Alex_007 (24.06.2015), alisicyn (24.06.2015), Gellard (24.06.2015), Kingsize87 (25.06.2015), MYSTERYS (24.06.2015), paravoz (25.06.2015), Rensler (27.06.2015), Rocky (24.06.2015), Save HQCLUB (25.06.2015), sklif1979 (24.06.2015), sociolog_melvas (24.06.2015), The next (24.06.2015), vitek (26.06.2015), xAlhimx (26.06.2015)
Старый 24.06.2015, 17:07   #2
Sub-эксперт
 
Аватар для Elheym
 
Регистрация: 10.01.2014
Пол: Мужчина
Сообщений: 1,526
Сказал(а) спасибо: 11,831
Поблагодарили 12,070 раз(а) в 1,783 сообщениях
По умолчанию

Полетели. Приятного просмотра.
__________________
Elheym вне форума   Ответить с цитированием
14 пользователя(ей) сказали cпасибо:
Alex_007 (24.06.2015), alisicyn (24.06.2015), Gellard (24.06.2015), Kingsize87 (25.06.2015), MYSTERYS (24.06.2015), paravoz (25.06.2015), Rensler (27.06.2015), Rocky (24.06.2015), Save HQCLUB (25.06.2015), sklif1979 (24.06.2015), sociolog_melvas (24.06.2015), The next (24.06.2015), vitek (26.06.2015), xAlhimx (24.06.2015)
Старый 03.07.2015, 06:52   #3
.
 
Аватар для xAlhimx
 
Регистрация: 24.03.2014
Адрес: Владивосток
Возраст: 29
Пол: Мужчина
Сообщений: 74
Сказал(а) спасибо: 124
Поблагодарили 435 раз(а) в 78 сообщениях
По умолчанию

Полетели
xAlhimx вне форума   Ответить с цитированием
5 пользователя(ей) сказали cпасибо:
Elheym (03.07.2015), Gellard (03.07.2015), Rensler (06.09.2015), sklif1979 (03.07.2015), sociolog_melvas (03.07.2015)
Ответ

Опции темы
Опции просмотра

Ваши права в разделе
Вы не можете создавать новые темы
Вы не можете отвечать в темах
Вы не можете прикреплять вложения
Вы не можете редактировать свои сообщения

BB коды Вкл.
Смайлы Вкл.
[IMG] код Вкл.
HTML код Выкл.



Текущее время: 18:58. Часовой пояс GMT +3.

Для правообладателей: Форум не предоставляет электронные версии произведений, а содержит ссылки на сторонние ресурсы. Все права на произведения принадлежат правообладателям. Если вы являетесь правообладателем произведения и не желаете чтобы ссылка на него находилась в нашем каталоге, свяжитесь с нами и мы незамедлительно удалим её. Публикация материалов сайта возможна только с разрешения администрации.


Помощь ресурсу
Copyright © 2009 — 2014 R.G. HQCLUB All Rights Reserved.
Powered by vBulletin® Version 3.8.7
Copyright ©2000 - 2018, vBulletin Solutions, Inc. Перевод: zCarot

Яндекс цитирования
Время генерации страницы 0.32673 секунды с 16 запросами